  0
SECTION
  2
HEADER
  9
$ACADVER
  1
AC1015
  9
$ACADMAINTVER
 70
     6
  9
$DWGCODEPAGE
  3
ANSI_1252
  9
$INSBASE
 10
0.0
 20
0.0
 30
0.0
  9
$EXTMIN
 10
-825.0
 20
0.0
 30
0.0
  9
$EXTMAX
 10
-720.0
 20
148.5000000000001
 30
0.0
  9
$LIMMIN
 10
0.0
 20
0.0
  9
$LIMMAX
 10
12.0
 20
9.0
  9
$ORTHOMODE
 70
     0
  9
$REGENMODE
 70
     1
  9
$FILLMODE
 70
     1
  9
$QTEXTMODE
 70
     0
  9
$MIRRTEXT
 70
     1
  9
$LTSCALE
 40
1.0
  9
$ATTMODE
 70
     1
  9
$TEXTSIZE
 40
0.2
  9
$TRACEWID
 40
0.05
  9
$TEXTSTYLE
  7
Standard
  9
$CLAYER
  8
0
  9
$CELTYPE
  6
ByLayer
  9
$CECOLOR
 62
   256
  9
$CELTSCALE
 40
1.0
  9
$DISPSILH
 70
     0
  9
$DIMSCALE
 40
1.0
  9
$DIMASZ
 40
0.18
  9
$DIMEXO
 40
0.0625
  9
$DIMDLI
 40
0.38
  9
$DIMRND
 40
0.0
  9
$DIMDLE
 40
0.0
  9
$DIMEXE
 40
0.18
  9
$DIMTP
 40
0.0
  9
$DIMTM
 40
0.0
  9
$DIMTXT
 40
0.18
  9
$DIMCEN
 40
0.09
  9
$DIMTSZ
 40
0.0
  9
$DIMTOL
 70
     0
  9
$DIMLIM
 70
     0
  9
$DIMTIH
 70
     1
  9
$DIMTOH
 70
     1
  9
$DIMSE1
 70
     0
  9
$DIMSE2
 70
     0
  9
$DIMTAD
 70
     0
  9
$DIMZIN
 70
     0
  9
$DIMBLK
  1

  9
$DIMASO
 70
     1
  9
$DIMSHO
 70
     1
  9
$DIMPOST
  1

  9
$DIMAPOST
  1

  9
$DIMALT
 70
     0
  9
$DIMALTD
 70
     2
  9
$DIMALTF
 40
25.4
  9
$DIMLFAC
 40
1.0
  9
$DIMTOFL
 70
     0
  9
$DIMTVP
 40
0.0
  9
$DIMTIX
 70
     0
  9
$DIMSOXD
 70
     0
  9
$DIMSAH
 70
     0
  9
$DIMBLK1
  1

  9
$DIMBLK2
  1

  9
$DIMSTYLE
  2
Standard
  9
$DIMCLRD
 70
     0
  9
$DIMCLRE
 70
     0
  9
$DIMCLRT
 70
     0
  9
$DIMTFAC
 40
1.0
  9
$DIMGAP
 40
0.09
  9
$DIMJUST
 70
     0
  9
$DIMSD1
 70
     0
  9
$DIMSD2
 70
     0
  9
$DIMTOLJ
 70
     1
  9
$DIMTZIN
 70
     0
  9
$DIMALTZ
 70
     0
  9
$DIMALTTZ
 70
     0
  9
$DIMUPT
 70
     0
  9
$DIMDEC
 70
     4
  9
$DIMTDEC
 70
     4
  9
$DIMALTU
 70
     2
  9
$DIMALTTD
 70
     2
  9
$DIMTXSTY
  7
Standard
  9
$DIMAUNIT
 70
     0
  9
$DIMADEC
 70
     0
  9
$DIMALTRND
 40
0.0
  9
$DIMAZIN
 70
     0
  9
$DIMDSEP
 70
    46
  9
$DIMATFIT
 70
     3
  9
$DIMFRAC
 70
     0
  9
$DIMLDRBLK
  1

  9
$DIMLUNIT
 70
     2
  9
$DIMLWD
 70
    -2
  9
$DIMLWE
 70
    -2
  9
$DIMTMOVE
 70
     0
  9
$LUNITS
 70
     2
  9
$LUPREC
 70
     4
  9
$SKETCHINC
 40
0.1
  9
$FILLETRAD
 40
0.5
  9
$AUNITS
 70
     0
  9
$AUPREC
 70
     0
  9
$MENU
  1
.
  9
$ELEVATION
 40
0.0
  9
$PELEVATION
 40
0.0
  9
$THICKNESS
 40
0.0
  9
$LIMCHECK
 70
     0
  9
$CHAMFERA
 40
0.0
  9
$CHAMFERB
 40
0.0
  9
$CHAMFERC
 40
0.0
  9
$CHAMFERD
 40
0.0
  9
$SKPOLY
 70
     0
  9
$TDCREATE
 40
2460000.471563275
  9
$TDUCREATE
 40
2460000.429896609
  9
$TDUPDATE
 40
2460000.471563472
  9
$TDUUPDATE
 40
2460000.429896805
  9
$TDINDWG
 40
0.0000000116
  9
$TDUSRTIMER
 40
0.0000000116
  9
$USRTIMER
 70
     1
  9
$ANGBASE
 50
0.0
  9
$ANGDIR
 70
     0
  9
$PDMODE
 70
     0
  9
$PDSIZE
 40
0.0
  9
$PLINEWID
 40
0.0
  9
$SPLFRAME
 70
     0
  9
$SPLINETYPE
 70
     6
  9
$SPLINESEGS
 70
     8
  9
$HANDSEED
  5
24A
  9
$SURFTAB1
 70
     6
  9
$SURFTAB2
 70
     6
  9
$SURFTYPE
 70
     6
  9
$SURFU
 70
     6
  9
$SURFV
 70
     6
  9
$UCSBASE
  2

  9
$UCSNAME
  2

  9
$UCSORG
 10
0.0
 20
0.0
 30
0.0
  9
$UCSXDIR
 10
1.0
 20
0.0
 30
0.0
  9
$UCSYDIR
 10
0.0
 20
1.0
 30
0.0
  9
$UCSORTHOREF
  2

  9
$UCSORTHOVIEW
 70
     0
  9
$UCSORGTOP
 10
0.0
 20
0.0
 30
0.0
  9
$UCSORGBOTTOM
 10
0.0
 20
0.0
 30
0.0
  9
$UCSORGLEFT
 10
0.0
 20
0.0
 30
0.0
  9
$UCSORGRIGHT
 10
0.0
 20
0.0
 30
0.0
  9
$UCSORGFRONT
 10
0.0
 20
0.0
 30
0.0
  9
$UCSORGBACK
 10
0.0
 20
0.0
 30
0.0
  9
$PUCSBASE
  2

  9
$PUCSNAME
  2

  9
$PUCSORG
 10
0.0
 20
0.0
 30
0.0
  9
$PUCSXDIR
 10
1.0
 20
0.0
 30
0.0
  9
$PUCSYDIR
 10
0.0
 20
1.0
 30
0.0
  9
$PUCSORTHOREF
  2

  9
$PUCSORTHOVIEW
 70
     0
  9
$PUCSORGTOP
 10
0.0
 20
0.0
 30
0.0
  9
$PUCSORGBOTTOM
 10
0.0
 20
0.0
 30
0.0
  9
$PUCSORGLEFT
 10
0.0
 20
0.0
 30
0.0
  9
$PUCSORGRIGHT
 10
0.0
 20
0.0
 30
0.0
  9
$PUCSORGFRONT
 10
0.0
 20
0.0
 30
0.0
  9
$PUCSORGBACK
 10
0.0
 20
0.0
 30
0.0
  9
$USERI1
 70
     0
  9
$USERI2
 70
     0
  9
$USERI3
 70
     0
  9
$USERI4
 70
     0
  9
$USERI5
 70
     0
  9
$USERR1
 40
20.1
  9
$USERR2
 40
0.0
  9
$USERR3
 40
0.0
  9
$USERR4
 40
0.0
  9
$USERR5
 40
0.0
  9
$WORLDVIEW
 70
     1
  9
$SHADEDGE
 70
     3
  9
$SHADEDIF
 70
    70
  9
$TILEMODE
 70
     1
  9
$MAXACTVP
 70
    64
  9
$PINSBASE
 10
0.0
 20
0.0
 30
0.0
  9
$PLIMCHECK
 70
     0
  9
$PEXTMIN
 10
1.00000000000000E+20
 20
1.00000000000000E+20
 30
1.00000000000000E+20
  9
$PEXTMAX
 10
-1.00000000000000E+20
 20
-1.00000000000000E+20
 30
-1.00000000000000E+20
  9
$PLIMMIN
 10
0.0
 20
0.0
  9
$PLIMMAX
 10
12.0
 20
9.0
  9
$UNITMODE
 70
     0
  9
$VISRETAIN
 70
     1
  9
$PLINEGEN
 70
     0
  9
$PSLTSCALE
 70
     1
  9
$TREEDEPTH
 70
  3020
  9
$CMLSTYLE
  2
Standard
  9
$CMLJUST
 70
     0
  9
$CMLSCALE
 40
1.0
  9
$PROXYGRAPHICS
 70
     1
  9
$MEASUREMENT
 70
     1
  9
$CELWEIGHT
370
    -1
  9
$ENDCAPS
280
     0
  9
$JOINSTYLE
280
     0
  9
$LWDISPLAY
290
     0
  9
$INSUNITS
 70
     4
  9
$HYPERLINKBASE
  1

  9
$STYLESHEET
  1

  9
$XEDIT
290
     1
  9
$CEPSNTYPE
380
     0
  9
$PSTYLEMODE
290
     1
  9
$FINGERPRINTGUID
  2
{d77c9068-70a6-429a-9e57-e6ddedaec727}
  9
$VERSIONGUID
  2
{FAEB1C32-E019-11D5-929B-00C0DF256EC4}
  9
$EXTNAMES
290
     1
  9
$PSVPSCALE
 40
0.0
  9
$OLESTARTUP
290
     0
  0
ENDSEC
  0
SECTION
  2
CLASSES
  0
CLASS
  1
ACDBDICTIONARYWDFLT
  2
AcDbDictionaryWithDefault
  3
ObjectDBX Classes
 90
        0
280
     0
281
     0
  0
CLASS
  1
VISUALSTYLE
  2
AcDbVisualStyle
  3
ObjectDBX Classes
 90
     4095
280
     0
281
     0
  0
CLASS
  1
MATERIAL
  2
AcDbMaterial
  3
ObjectDBX Classes
 90
     1153
280
     0
281
     0
  0
CLASS
  1
SCALE
  2
AcDbScale
  3
ObjectDBX Classes
 90
     1153
280
     0
281
     0
  0
CLASS
  1
TABLESTYLE
  2
AcDbTableStyle
  3
ObjectDBX Classes
 90
     4095
280
     0
281
     0
  0
CLASS
  1
MLEADERSTYLE
  2
AcDbMLeaderStyle
  3
ACDB_MLEADERSTYLE_CLASS
 90
     4095
280
     0
281
     0
  0
CLASS
  1
SUN
  2
AcDbSun
  3
SCENEOE
 90
     1153
280
     0
281
     0
  0
CLASS
  1
DICTIONARYVAR
  2
AcDbDictionaryVar
  3
ObjectDBX Classes
 90
        0
280
     0
281
     0
  0
CLASS
  1
ACDBPLACEHOLDER
  2
AcDbPlaceHolder
  3
ObjectDBX Classes
 90
        0
280
     0
281
     0
  0
CLASS
  1
LAYOUT
  2
AcDbLayout
  3
ObjectDBX Classes
 90
        0
280
     0
281
     0
  0
ENDSEC
  0
SECTION
  2
TABLES
  0
TABLE
  2
VPORT
  5
8
102
{ACAD_XDICTIONARY
360
20D
102
}
330
0
100
AcDbSymbolTable
 70
     1
  0
VPORT
  5
29
330
8
100
AcDbSymbolTableRecord
100
AcDbViewportTableRecord
  2
*Active
 70
     0
 10
0.0
 20
0.0
 11
1.0
 21
1.0
 12
-772.5
 22
74.25000000000006
 13
0.0
 23
0.0
 14
0.5
 24
0.5
 15
0.5
 25
0.5
 16
0.0
 26
0.0
 36
1.0
 17
0.0
 27
0.0
 37
0.0
 40
163.3500000000001
 41
1.60267857142857
 42
50.0
 43
0.0
 44
0.0
 50
0.0
 51
0.0
 71
     0
 72
   100
 73
     1
 74
     3
 75
     0
 76
     0
 77
     0
 78
     0
281
     0
 65
     1
110
0.0
120
0.0
130
0.0
111
1.0
121
0.0
131
0.0
112
0.0
122
1.0
132
0.0
 79
     0
146
0.0
  0
ENDTAB
  0
TABLE
  2
LTYPE
  5
5
330
0
100
AcDbSymbolTable
 70
     8
  0
LTYPE
  5
14
330
5
100
AcDbSymbolTableRecord
100
AcDbLinetypeTableRecord
  2
ByBlock
 70
     0
  3

 72
    65
 73
     0
 40
0.0
  0
LTYPE
  5
15
330
5
100
AcDbSymbolTableRecord
100
AcDbLinetypeTableRecord
  2
ByLayer
 70
     0
  3

 72
    65
 73
     0
 40
0.0
  0
LTYPE
  5
16
330
5
100
AcDbSymbolTableRecord
100
AcDbLinetypeTableRecord
  2
Continuous
 70
     0
  3
Solid line
 72
    65
 73
     0
 40
0.0
  0
LTYPE
  5
6E
330
5
100
AcDbSymbolTableRecord
100
AcDbLinetypeTableRecord
  2
DASHED
 70
     0
  3
Dashed
 72
    65
 73
     2
 40
15.0
 49
7.0
 74
     0
 49
-8.0
 74
     0
  0
LTYPE
  5
6F
330
5
100
AcDbSymbolTableRecord
100
AcDbLinetypeTableRecord
  2
DOTTED
 70
     0
  3
Dotted
 72
    65
 73
     2
 40
1.0
 49
0.0
 74
     0
 49
-1.0
 74
     0
  0
LTYPE
  5
70
330
5
100
AcDbSymbolTableRecord
100
AcDbLinetypeTableRecord
  2
DOT_CENTER
 70
     0
  3
Dot_Center
 72
    65
 73
     4
 40
14.0
 49
12.0
 74
     0
 49
-1.0
 74
     0
 49
0.0
 74
     0
 49
-1.0
 74
     0
  0
LTYPE
  5
71
330
5
100
AcDbSymbolTableRecord
100
AcDbLinetypeTableRecord
  2
LONG_DASHED
 70
     0
  3
Long_Dashed
 72
    65
 73
     2
 40
15.0
 49
10.0
 74
     0
 49
-5.0
 74
     0
  0
LTYPE
  5
72
330
5
100
AcDbSymbolTableRecord
100
AcDbLinetypeTableRecord
  2
DASH_CENTER
 70
     0
  3
Dash_Center
 72
    65
 73
     4
 40
14.0
 49
11.0
 74
     0
 49
-1.0
 74
     0
 49
1.0
 74
     0
 49
-1.0
 74
     0
  0
LTYPE
  5
73
330
5
100
AcDbSymbolTableRecord
100
AcDbLinetypeTableRecord
  2
PHANTOM
 70
     0
  3
Phantom
 72
    65
 73
     6
 40
13.0
 49
10.0
 74
     0
 49
-1.0
 74
     0
 49
0.0
 74
     0
 49
-1.0
 74
     0
 49
0.0
 74
     0
 49
-1.0
 74
     0
  0
LTYPE
  5
74
330
5
100
AcDbSymbolTableRecord
100
AcDbLinetypeTableRecord
  2
CENTER_DASH_DASH
 70
     0
  3
Center_Dash_Dash
 72
    65
 73
     6
 40
14.0
 49
9.0
 74
     0
 49
-1.0
 74
     0
 49
1.0
 74
     0
 49
-1.0
 74
     0
 49
1.0
 74
     0
 49
-1.0
 74
     0
  0
ENDTAB
  0
TABLE
  2
LAYER
  5
2
330
0
100
AcDbSymbolTable
 70
     2
  0
LAYER
  5
10
330
2
100
AcDbSymbolTableRecord
100
AcDbLayerTableRecord
  2
0
 70
     0
 62
     7
  6
Continuous
370
    -3
390
F
  0
LAYER
  5
75
330
2
100
AcDbSymbolTableRecord
100
AcDbLayerTableRecord
  2
1
 70
     0
 62
     7
  6
Continuous
370
    -3
390
F
  0
ENDTAB
  0
TABLE
  2
STYLE
  5
3
330
0
100
AcDbSymbolTable
 70
     6
  0
STYLE
  5
11
330
3
100
AcDbSymbolTableRecord
100
AcDbTextStyleTableRecord
  2
Standard
 70
     0
 40
0.0
 41
1.0
 50
0.0
 71
     0
 42
0.2
  3
txt
  4

  0
STYLE
  5
DB
330
3
100
AcDbSymbolTableRecord
100
AcDbTextStyleTableRecord
  2
CONVERTER_11
 70
     0
 40
0.0
 41
1.2
 50
0.0
 71
     0
 42
0.2
  3
ARIAL.TTF
  4

  0
STYLE
  5
E7
330
3
100
AcDbSymbolTableRecord
100
AcDbTextStyleTableRecord
  2
CONVERTER_12
 70
     0
 40
0.0
 41
1.38
 50
0.0
 71
     0
 42
0.2
  3
ARIAL.TTF
  4

  0
STYLE
  5
EB
330
3
100
AcDbSymbolTableRecord
100
AcDbTextStyleTableRecord
  2
CONVERTER_13
 70
     0
 40
0.0
 41
1.08
 50
0.0
 71
     0
 42
0.2
  3
ARIAL.TTF
  4

  0
STYLE
  5
18D
330
3
100
AcDbSymbolTableRecord
100
AcDbTextStyleTableRecord
  2
CONVERTER_14
 70
     0
 40
0.0
 41
0.95
 50
0.0
 71
     0
 42
0.2
  3
simplex.shx
  4

  0
STYLE
  5
18F
330
3
100
AcDbSymbolTableRecord
100
AcDbTextStyleTableRecord
  2
CONVERTER_15
 70
     0
 40
0.0
 41
0.855
 50
0.0
 71
     0
 42
0.2
  3
simplex.shx
  4

  0
ENDTAB
  0
TABLE
  2
VIEW
  5
6
330
0
100
AcDbSymbolTable
 70
     0
  0
ENDTAB
  0
TABLE
  2
UCS
  5
7
330
0
100
AcDbSymbolTable
 70
     0
  0
ENDTAB
  0
TABLE
  2
APPID
  5
9
330
0
100
AcDbSymbolTable
 70
     2
  0
APPID
  5
12
330
9
100
AcDbSymbolTableRecord
100
AcDbRegAppTableRecord
  2
ACAD
 70
     0
  0
APPID
  5
247
330
9
100
AcDbSymbolTableRecord
100
AcDbRegAppTableRecord
  2
ACAD_MLEADERVER
 70
     0
  0
ENDTAB
  0
TABLE
  2
DIMSTYLE
  5
A
330
0
100
AcDbSymbolTable
 70
    11
100
AcDbDimStyleTable
  0
DIMSTYLE
105
27
330
A
100
AcDbSymbolTableRecord
100
AcDbDimStyleTableRecord
  2
Standard
 70
     0
178
     0
340
11
  0
DIMSTYLE
105
19A
102
{ACAD_REACTORS
330
19B
102
}
330
A
100
AcDbSymbolTableRecord
100
AcDbDimStyleTableRecord
  2
ME10_DIM_10
 70
     0
 41
1.0
 42
0.25
 44
0.5
 73
     0
 74
     0
 77
     1
 78
     8
140
1.0
147
1.0
172
     1
173
     1
174
     1
175
     1
176
     2
177
     2
271
     2
178
     4
271
     2
340
18D
  0
DIMSTYLE
105
1A5
102
{ACAD_REACTORS
330
1A6
102
}
330
A
100
AcDbSymbolTableRecord
100
AcDbDimStyleTableRecord
  2
ME10_DIM_11
 70
     0
 41
1.5
 42
0.25
 44
0.5
 73
     0
 74
     0
 77
     1
 78
     8
140
1.5
147
1.0
172
     1
173
     1
174
     1
175
     1
176
     2
177
     2
271
     2
178
     4
271
     2
340
18D
  0
DIMSTYLE
105
1B2
102
{ACAD_REACTORS
330
1B3
102
}
330
A
100
AcDbSymbolTableRecord
100
AcDbDimStyleTableRecord
  2
ME10_DIM_12
 70
     0
 41
1.5
 42
0.25
 44
0.5
 73
     0
 74
     0
 77
     1
 78
     8
140
1.5
147
1.0
172
     1
173
     1
174
     1
175
     1
176
     2
177
     2
271
     2
178
     4
271
     2
340
18D
  0
DIMSTYLE
105
1BD
102
{ACAD_REACTORS
330
1BE
102
}
330
A
100
AcDbSymbolTableRecord
100
AcDbDimStyleTableRecord
  2
ME10_DIM_13
 70
     0
  3
ø<>
 41
1.5
 42
0.25
 44
0.5
 73
     0
 74
     0
 77
     1
 78
     8
140
1.5
147
1.0
172
     1
173
     1
174
     1
175
     1
176
     2
177
     2
271
     2
178
     4
271
     2
340
18D
  0
DIMSTYLE
105
1C8
102
{ACAD_REACTORS
330
1C9
102
}
330
A
100
AcDbSymbolTableRecord
100
AcDbDimStyleTableRecord
  2
ME10_DIM_14
 70
     0
  3
ø<>
 41
1.5
 42
0.25
 44
0.5
 73
     0
 74
     0
 77
     1
 78
     8
140
1.5
147
1.0
172
     1
173
     1
174
     1
175
     1
176
     2
177
     2
271
     2
178
     4
271
     2
340
18D
  0
DIMSTYLE
105
1D3
102
{ACAD_REACTORS
330
1D4
102
}
330
A
100
AcDbSymbolTableRecord
100
AcDbDimStyleTableRecord
  2
ME10_DIM_15
 70
     0
 41
1.5
 42
0.25
 44
0.5
 73
     0
 74
     0
 77
     1
 78
     8
140
1.5
147
1.0
172
     1
173
     1
174
     1
175
     1
176
     2
177
     2
271
     2
178
     4
271
     2
340
18D
  0
DIMSTYLE
105
1DF
102
{ACAD_REACTORS
330
1E0
102
}
330
A
100
AcDbSymbolTableRecord
100
AcDbDimStyleTableRecord
  2
ME10_DIM_16
 70
     0
  3
ø<>
 41
1.5
 42
0.25
 44
0.5
 73
     0
 74
     0
 77
     1
 78
     8
140
1.5
147
1.0
172
     1
173
     1
174
     1
175
     1
176
     2
177
     2
271
     2
178
     4
271
     2
340
18D
  0
DIMSTYLE
105
1EA
102
{ACAD_REACTORS
330
1EB
102
}
330
A
100
AcDbSymbolTableRecord
100
AcDbDimStyleTableRecord
  2
ME10_DIM_17
 70
     0
 41
1.5
 42
0.25
 44
0.5
 73
     0
 74
     0
 77
     1
 78
     8
140
1.5
147
1.0
172
     1
173
     1
174
     1
175
     1
176
     2
177
     2
271
     2
178
     4
271
     2
340
18D
  0
DIMSTYLE
105
1F7
102
{ACAD_REACTORS
330
1F8
102
}
330
A
100
AcDbSymbolTableRecord
100
AcDbDimStyleTableRecord
  2
ME10_DIM_18
 70
     0
 41
1.5
 42
0.25
 44
0.5
 73
     0
 74
     0
 77
     1
 78
     8
140
1.5
147
1.0
172
     1
173
     1
174
     1
175
     1
176
     2
177
     2
271
     2
178
     4
271
     2
340
18D
  0
DIMSTYLE
105
202
102
{ACAD_REACTORS
330
203
102
}
330
A
100
AcDbSymbolTableRecord
100
AcDbDimStyleTableRecord
  2
ME10_DIM_19
 70
     0
  3
ø<>
 41
1.5
 42
0.25
 44
0.5
 73
     0
 74
     0
 77
     1
 78
     8
140
1.5
147
1.0
172
     1
173
     1
174
     1
175
     1
176
     2
177
     2
271
     2
178
     4
271
     2
340
18D
  0
ENDTAB
  0
TABLE
  2
BLOCK_RECORD
  5
1
330
0
100
AcDbSymbolTable
 70
    13
  0
BLOCK_RECORD
  5
1F
330
1
100
AcDbSymbolTableRecord
100
AcDbBlockTableRecord
  2
*Model_Space
340
22
  0
BLOCK_RECORD
  5
1B
330
1
100
AcDbSymbolTableRecord
100
AcDbBlockTableRecord
  2
*Paper_Space
340
1E
  0
BLOCK_RECORD
  5
23
330
1
100
AcDbSymbolTableRecord
100
AcDbBlockTableRecord
  2
*Paper_Space0
340
26
  0
BLOCK_RECORD
  5
76
330
1
100
AcDbSymbolTableRecord
100
AcDbBlockTableRecord
  2
_formato_A4
340
0
102
{BLKREFS
331
7A
102
}
  0
BLOCK_RECORD
  5
79
330
1
100
AcDbSymbolTableRecord
100
AcDbBlockTableRecord
  2
A4_new
340
0
102
{BLKREFS
331
7D
102
}
  0
BLOCK_RECORD
  5
191
330
1
100
AcDbSymbolTableRecord
100
AcDbBlockTableRecord
  2
*D3
340
0
  0
BLOCK_RECORD
  5
19C
330
1
100
AcDbSymbolTableRecord
100
AcDbBlockTableRecord
  2
*D4
340
0
  0
BLOCK_RECORD
  5
1A7
330
1
100
AcDbSymbolTableRecord
100
AcDbBlockTableRecord
  2
*D5
340
0
  0
BLOCK_RECORD
  5
1B4
330
1
100
AcDbSymbolTableRecord
100
AcDbBlockTableRecord
  2
*D6
340
0
  0
BLOCK_RECORD
  5
1BF
330
1
100
AcDbSymbolTableRecord
100
AcDbBlockTableRecord
  2
*D7
340
0
  0
BLOCK_RECORD
  5
1CA
330
1
100
AcDbSymbolTableRecord
100
AcDbBlockTableRecord
  2
*D8
340
0
  0
BLOCK_RECORD
  5
1D5
330
1
100
AcDbSymbolTableRecord
100
AcDbBlockTableRecord
  2
*D9
340
0
  0
BLOCK_RECORD
  5
1E1
330
1
100
AcDbSymbolTableRecord
100
AcDbBlockTableRecord
  2
*D10
340
0
  0
BLOCK_RECORD
  5
1EC
330
1
100
AcDbSymbolTableRecord
100
AcDbBlockTableRecord
  2
*D11
340
0
  0
BLOCK_RECORD
  5
1F9
330
1
100
AcDbSymbolTableRecord
100
AcDbBlockTableRecord
  2
*D12
340
0
  0
ENDTAB
  0
ENDSEC
  0
SECTION
  2
BLOCKS
  0
BLOCK
  5
20
330
1F
100
AcDbEntity
  8
0
100
AcDbBlockBegin
  2
*Model_Space
 70
     0
 10
0.0
 20
0.0
 30
0.0
  3
*Model_Space
  1

  0
ENDBLK
  5
21
330
1F
100
AcDbEntity
  8
0
100
AcDbBlockEnd
  0
BLOCK
  5
1C
330
1B
100
AcDbEntity
 67
     1
  8
0
100
AcDbBlockBegin
  2
*Paper_Space
 70
     0
 10
0.0
 20
0.0
 30
0.0
  3
*Paper_Space
  1

  0
ENDBLK
  5
1D
330
1B
100
AcDbEntity
 67
     1
  8
0
100
AcDbBlockEnd
  0
BLOCK
  5
24
330
23
100
AcDbEntity
  8
0
100
AcDbBlockBegin
  2
*Paper_Space0
 70
     0
 10
0.0
 20
0.0
 30
0.0
  3
*Paper_Space0
  1

  0
ENDBLK
  5
25
330
23
100
AcDbEntity
  8
0
100
AcDbBlockEnd
  0
BLOCK
  5
77
330
76
100
AcDbEntity
  8
0
100
AcDbBlockBegin
  2
_formato_A4
 70
     0
 10
-1440.0
 20
0.0
 30
0.0
  3
_formato_A4
  1

  0
LINE
  5
7E
330
76
100
AcDbEntity
  8
1
  6
Continuous
 62
     7
100
AcDbLine
 10
-1534.5
 20
292.0000000000003
 30
0.0
 11
-1624.0
 21
292.0000000000003
 31
0.0
  0
LINE
  5
7F
330
76
100
AcDbEntity
  8
1
  6
Continuous
 62
     7
100
AcDbLine
 10
-1624.0
 20
292.0000000000003
 30
0.0
 11
-1624.0
 21
23.00000000000003
 31
0.0
  0
LINE
  5
80
330
76
100
AcDbEntity
  8
1
  6
Continuous
 62
     7
100
AcDbLine
 10
-1440.0
 20
0.0
 30
0.0
 11
-1440.0
 21
297.0000000000001
 31
0.0
  0
LINE
  5
81
330
76
100
AcDbEntity
  8
1
  6
Continuous
 62
     7
100
AcDbLine
 10
-1440.0
 20
297.0000000000001
 30
0.0
 11
-1650.0
 21
297.0000000000003
 31
0.0
  0
LINE
  5
82
330
76
100
AcDbEntity
  8
1
  6
Continuous
 62
     7
100
AcDbLine
 10
-1445.0
 20
292.0000000000003
 30
0.0
 11
-1534.5
 21
292.0000000000003
 31
0.0
  0
LINE
  5
83
330
76
100
AcDbEntity
  8
1
  6
Continuous
 62
     7
100
AcDbLine
 10
-1650.0
 20
148.4999999999999
 30
0.0
 11
-1635.0
 21
148.4999999999999
 31
0.0
  0
LINE
  5
84
330
76
100
AcDbEntity
  8
1
  6
Continuous
 62
     7
100
AcDbLine
 10
-1650.0
 20
297.0000000000003
 30
0.0
 11
-1650.0
 21
0.0
 31
0.0
  0
LINE
  5
85
330
76
100
AcDbEntity
  8
1
  6
Continuous
 62
     7
100
AcDbLine
 10
-1624.0
 20
292.0000000000003
 30
0.0
 11
-1624.0
 21
4.9999999999999
 31
0.0
  0
LINE
  5
86
330
76
100
AcDbEntity
  8
1
  6
Continuous
 62
     7
100
AcDbLine
 10
-1624.0
 20
20.0
 30
0.0
 11
-1624.0
 21
0.0
 31
0.0
  0
LINE
  5
87
330
76
100
AcDbEntity
  8
1
  6
Continuous
 62
     7
100
AcDbLine
 10
-1594.0
 20
20.0
 30
0.0
 11
-1594.0
 21
5.0
 31
0.0
  0
LINE
  5
88
330
76
100
AcDbEntity
  8
1
  6
Continuous
 62
     7
100
AcDbLine
 10
-1650.0
 20
0.0
 30
0.0
 11
-1440.0
 21
0.0
 31
0.0
  0
LINE
  5
89
330
76
100
AcDbEntity
  8
1
  6
Continuous
 62
     7
100
AcDbLine
 10
-1629.0
 20
4.99999999999989
 30
0.0
 11
-1445.0
 21
4.99999999999989
 31
0.0
  0
LINE
  5
8A
330
76
100
AcDbEntity
  8
1
  6
Continuous
 62
     7
100
AcDbLine
 10
-1440.0
 20
292.0000000000003
 30
0.0
 11
-1440.0
 21
297.0000000000001
 31
0.0
  0
LINE
  5
8B
330
76
100
AcDbEntity
  8
1
  6
Continuous
 62
     7
100
AcDbLine
 10
-1440.0
 20
292.0000000000003
 30
0.0
 11
-1445.0
 21
292.0000000000003
 31
0.0
  0
LINE
  5
8C
330
76
100
AcDbEntity
  8
1
  6
Continuous
 62
     7
100
AcDbLine
 10
-1445.0
 20
4.99999999999989
 30
0.0
 11
-1445.0
 21
292.0000000000003
 31
0.0
  0
LINE
  5
8D
330
76
100
AcDbEntity
  8
1
  6
Continuous
 62
     7
100
AcDbLine
 10
-1440.0
 20
0.0
 30
0.0
 11
-1440.0
 21
5.00000000000021
 31
0.0
  0
LINE
  5
8E
330
76
100
AcDbEntity
  8
1
  6
Continuous
 62
     7
100
AcDbLine
 10
-1534.5
 20
292.0000000000003
 30
0.0
 11
-1534.5
 21
297.0000000000003
 31
0.0
  0
LINE
  5
8F
330
76
100
AcDbEntity
  8
1
  6
Continuous
 62
     7
100
AcDbLine
 10
-1534.5
 20
297.0000000000003
 30
0.0
 11
-1624.0
 21
297.0000000000003
 31
0.0
  0
LINE
  5
90
330
76
100
AcDbEntity
  8
1
  6
Continuous
 62
     7
100
AcDbLine
 10
-1624.0
 20
196.3333333333336
 30
0.0
 11
-1629.0
 21
196.3333333333336
 31
0.0
  0
LINE
  5
91
330
76
100
AcDbEntity
  8
1
  6
Continuous
 62
     7
100
AcDbLine
 10
-1624.0
 20
292.0000000000003
 30
0.0
 11
-1624.0
 21
4.9999999999999
 31
0.0
  0
LINE
  5
92
330
76
100
AcDbEntity
  8
1
  6
Continuous
 62
     7
100
AcDbLine
 10
-1445.0
 20
292.0000000000003
 30
0.0
 11
-1445.0
 21
297.0000000000003
 31
0.0
  0
LINE
  5
93
330
76
100
AcDbEntity
  8
1
  6
Continuous
 62
     7
100
AcDbLine
 10
-1624.0
 20
100.6666666666669
 30
0.0
 11
-1629.0
 21
100.6666666666669
 31
0.0
  0
LINE
  5
94
330
76
100
AcDbEntity
  8
1
  6
Continuous
 62
     7
100
AcDbLine
 10
-1624.0
 20
292.0000000000003
 30
0.0
 11
-1629.0
 21
292.0000000000003
 31
0.0
  0
LINE
  5
95
330
76
100
AcDbEntity
  8
1
  6
Continuous
 62
     7
100
AcDbLine
 10
-1624.0
 20
292.0000000000003
 30
0.0
 11
-1624.0
 21
297.0000000000003
 31
0.0
  0
LINE
  5
96
330
76
100
AcDbEntity
  8
1
  6
Continuous
 62
     7
100
AcDbLine
 10
-1445.0
 20
4.99999999999989
 30
0.0
 11
-1445.0
 21
0.00000000000021
 31
0.0
  0
LINE
  5
97
330
76
100
AcDbEntity
  8
1
  6
Continuous
 62
     7
100
AcDbLine
 10
-1445.0
 20
0.00000000000021
 30
0.0
 11
-1440.0
 21
0.0
 31
0.0
  0
LINE
  5
98
330
76
100
AcDbEntity
  8
1
  6
Continuous
 62
     7
100
AcDbLine
 10
-1445.0
 20
4.99999999999989
 30
0.0
 11
-1440.0
 21
5.00000000000021
 31
0.0
  0
LINE
  5
99
330
76
100
AcDbEntity
  8
1
  6
Continuous
 62
     7
100
AcDbLine
 10
-1440.0
 20
5.00000000000021
 30
0.0
 11
-1440.0
 21
292.0000000000003
 31
0.0
  0
LINE
  5
9A
330
76
100
AcDbEntity
  8
1
  6
Continuous
 62
     7
100
AcDbLine
 10
-1534.5
 20
0.0
 30
0.0
 11
-1534.5
 21
5.0
 31
0.0
  0
LINE
  5
9B
330
76
100
AcDbEntity
  8
1
  6
Continuous
 62
     7
100
AcDbLine
 10
-1440.0
 20
196.3333333333336
 30
0.0
 11
-1445.0
 21
196.3333333333336
 31
0.0
  0
LINE
  5
9C
330
76
100
AcDbEntity
  8
1
  6
Continuous
 62
     7
100
AcDbLine
 10
-1440.0
 20
100.6666666666669
 30
0.0
 11
-1445.0
 21
100.6666666666668
 31
0.0
  0
LINE
  5
9D
330
76
100
AcDbEntity
  8
1
  6
Continuous
 62
     7
100
AcDbLine
 10
-1624.0
 20
20.0
 30
0.0
 11
-1445.0
 21
20.00000000000001
 31
0.0
  0
LINE
  5
9E
330
76
100
AcDbEntity
  8
1
  6
DOT_CENTER
 62
     7
100
AcDbLine
 10
-1611.2
 20
27.15000000000011
 30
0.0
 11
-1611.2
 21
20.84999999999901
 31
0.0
  0
LINE
  5
9F
330
76
100
AcDbEntity
  8
1
  6
DOT_CENTER
 62
     7
100
AcDbLine
 10
-1608.05042481877
 20
24.00000000000001
 30
0.0
 11
-1621.7
 21
24.00000000000001
 31
0.0
  0
LINE
  5
A0
330
76
100
AcDbEntity
  8
1
  6
Continuous
 62
     7
100
AcDbLine
 10
-1624.0
 20
9.99999999999984
 30
0.0
 11
-1594.0
 21
9.99999999999984
 31
0.0
  0
LINE
  5
A1
330
76
100
AcDbEntity
  8
1
  6
Continuous
 62
     7
100
AcDbLine
 10
-1594.0
 20
20.0
 30
0.0
 11
-1594.0
 21
5.0
 31
0.0
  0
LINE
  5
A2
330
76
100
AcDbEntity
  8
1
  6
Continuous
 62
     7
100
AcDbLine
 10
-1488.0
 20
20.00000000000001
 30
0.0
 11
-1488.0
 21
5.0
 31
0.0
  0
LINE
  5
A3
330
76
100
AcDbEntity
  8
1
  6
Continuous
 62
     7
100
AcDbLine
 10
-1624.0
 20
14.99999999999989
 30
0.0
 11
-1594.0
 21
14.99999999999989
 31
0.0
  0
LINE
  5
A4
330
76
100
AcDbEntity
  8
1
  6
Continuous
 62
     7
100
AcDbLine
 10
-1615.75
 20
26.45000000000005
 30
0.0
 11
-1621.0
 21
25.40000000000011
 31
0.0
  0
LINE
  5
A5
330
76
100
AcDbEntity
  8
1
  6
Continuous
 62
     7
100
AcDbLine
 10
-1615.75
 20
21.54999999999906
 30
0.0
 11
-1615.75
 21
26.45000000000005
 31
0.0
  0
LINE
  5
A6
330
76
100
AcDbEntity
  8
1
  6
Continuous
 62
     7
100
AcDbLine
 10
-1621.0
 20
22.59999999999901
 30
0.0
 11
-1615.75
 21
21.54999999999906
 31
0.0
  0
LINE
  5
A7
330
76
100
AcDbEntity
  8
1
  6
Continuous
 62
     7
100
AcDbLine
 10
-1621.0
 20
25.40000000000011
 30
0.0
 11
-1621.0
 21
22.59999999999901
 31
0.0
  0
LINE
  5
A8
330
76
100
AcDbEntity
  8
1
  6
Continuous
 62
     7
100
AcDbLine
 10
-1594.0
 20
20.0
 30
0.0
 11
-1594.0
 21
28.00000000000001
 31
0.0
  0
LINE
  5
A9
330
76
100
AcDbEntity
  8
1
  6
Continuous
 62
     7
100
AcDbLine
 10
-1445.0
 20
28.00000000000001
 30
0.0
 11
-1624.0
 21
28.00000000000001
 31
0.0
  0
LINE
  5
AA
330
76
100
AcDbEntity
  8
1
  6
Continuous
 62
     7
100
AcDbLine
 10
-1624.0
 20
33.00000000000007
 30
0.0
 11
-1445.0
 21
33.00000000000007
 31
0.0
  0
LINE
  5
AB
330
76
100
AcDbEntity
  8
1
  6
Continuous
 62
     7
100
AcDbLine
 10
-1614.0
 20
33.00000000000007
 30
0.0
 11
-1614.0
 21
28.00000000000001
 31
0.0
  0
LINE
  5
AC
330
76
100
AcDbEntity
  8
1
  6
Continuous
 62
     7
100
AcDbLine
 10
-1599.0
 20
33.00000000000007
 30
0.0
 11
-1599.0
 21
28.00000000000001
 31
0.0
  0
LINE
  5
AD
330
76
100
AcDbEntity
  8
1
  6
Continuous
 62
     7
100
AcDbLine
 10
-1584.0
 20
33.00000000000007
 30
0.0
 11
-1584.0
 21
28.00000000000001
 31
0.0
  0
LINE
  5
AE
102
{ACAD_REACTORS
330
F7
102
}
330
76
100
AcDbEntity
  8
1
  6
Continuous
 62
     7
100
AcDbLine
 10
-1469.68862227049
 20
12.50000000000001
 30
0.0
 11
-1459.0
 21
18.67107894513354
 31
0.0
  0
LINE
  5
AF
102
{ACAD_REACTORS
330
F7
102
}
330
76
100
AcDbEntity
  8
1
  6
Continuous
 62
     7
100
AcDbLine
 10
-1448.31137772951
 20
12.50000000000001
 30
0.0
 11
-1459.0
 21
18.67107894513354
 31
0.0
  0
LINE
  5
B0
102
{ACAD_REACTORS
330
F7
102
}
330
76
100
AcDbEntity
  8
1
  6
Continuous
 62
     7
100
AcDbLine
 10
-1448.31137772951
 20
12.50000000000001
 30
0.0
 11
-1459.0
 21
6.3289210548665
 31
0.0
  0
LINE
  5
B1
102
{ACAD_REACTORS
330
F7
102
}
330
76
100
AcDbEntity
  8
1
  6
Continuous
 62
     7
100
AcDbLine
 10
-1469.68862227049
 20
12.50000000000001
 30
0.0
 11
-1459.0
 21
6.3289210548665
 31
0.0
  0
LINE
  5
B2
102
{ACAD_REACTORS
330
F7
102
}
330
76
100
AcDbEntity
  8
1
  6
Continuous
 62
     7
100
AcDbLine
 10
-1459.0
 20
6.1557159741096
 30
0.0
 11
-1448.01137772951
 21
12.50000000000001
 31
0.0
  0
LINE
  5
B3
102
{ACAD_REACTORS
330
F7
102
}
330
76
100
AcDbEntity
  8
1
  6
Continuous
 62
     7
100
AcDbLine
 10
-1459.0
 20
18.84428402589045
 30
0.0
 11
-1448.01137772951
 21
12.50000000000001
 31
0.0
  0
LINE
  5
B4
102
{ACAD_REACTORS
330
F7
102
}
330
76
100
AcDbEntity
  8
1
  6
Continuous
 62
     7
100
AcDbLine
 10
-1469.98862227049
 20
12.50000000000001
 30
0.0
 11
-1459.0
 21
6.1557159741096
 31
0.0
  0
LINE
  5
B5
102
{ACAD_REACTORS
330
F7
102
}
330
76
100
AcDbEntity
  8
1
  6
Continuous
 62
     7
100
AcDbLine
 10
-1469.98862227049
 20
12.50000000000001
 30
0.0
 11
-1459.0
 21
18.84428402589045
 31
0.0
  0
LINE
  5
B6
102
{ACAD_REACTORS
330
F8
102
}
330
76
100
AcDbEntity
  8
1
  6
Continuous
 62
     7
100
AcDbLine
 10
-1454.914437314509
 20
10.6112431784936
 30
0.0
 11
-1454.914437314509
 21
11.99481004637956
 31
0.0
  0
LINE
  5
B7
102
{ACAD_REACTORS
330
F8
102
}
330
76
100
AcDbEntity
  8
1
  6
Continuous
 62
     7
100
AcDbLine
 10
-1453.266143973935
 20
11.27056051472299
 30
0.0
 11
-1454.914437314509
 21
10.6112431784936
 31
0.0
  0
LINE
  5
B8
102
{ACAD_REACTORS
330
F8
102
}
330
76
100
AcDbEntity
  8
1
  6
Continuous
 62
     7
100
AcDbLine
 10
-1453.266143973935
 20
10.5218563252941
 30
0.0
 11
-1453.266143973935
 21
11.27056051472299
 31
0.0
  0
LINE
  5
B9
102
{ACAD_REACTORS
330
F8
102
}
330
76
100
AcDbEntity
  8
1
  6
Continuous
 62
     7
100
AcDbLine
 10
-1455.723185764263
 20
9.10328258623845
 30
0.0
 11
-1453.266143973935
 21
10.5218563252941
 31
0.0
  0
LINE
  5
BA
102
{ACAD_REACTORS
330
F8
102
}
330
76
100
AcDbEntity
  8
1
  6
Continuous
 62
     7
100
AcDbLine
 10
-1455.723185764263
 20
15.89671741376161
 30
0.0
 11
-1455.723185764263
 21
9.10328258623845
 31
0.0
  0
LINE
  5
BB
102
{ACAD_REACTORS
330
F8
102
}
330
76
100
AcDbEntity
  8
1
  6
Continuous
 62
     7
100
AcDbLine
 10
-1453.266143973935
 20
14.47814367470595
 30
0.0
 11
-1455.723185764263
 21
15.89671741376161
 31
0.0
  0
LINE
  5
BC
102
{ACAD_REACTORS
330
F8
102
}
330
76
100
AcDbEntity
  8
1
  6
Continuous
 62
     7
100
AcDbLine
 10
-1453.266143973935
 20
13.72943948527701
 30
0.0
 11
-1453.266143973935
 21
14.47814367470595
 31
0.0
  0
LINE
  5
BD
102
{ACAD_REACTORS
330
F8
102
}
330
76
100
AcDbEntity
  8
1
  6
Continuous
 62
     7
100
AcDbLine
 10
-1454.914437314509
 20
14.38875682150641
 30
0.0
 11
-1453.266143973935
 21
13.72943948527701
 31
0.0
  0
LINE
  5
BE
102
{ACAD_REACTORS
330
F8
102
}
330
76
100
AcDbEntity
  8
1
  6
Continuous
 62
     7
100
AcDbLine
 10
-1454.914437314509
 20
13.00518995362044
 30
0.0
 11
-1454.914437314509
 21
14.38875682150641
 31
0.0
  0
LINE
  5
BF
102
{ACAD_REACTORS
330
F8
102
}
330
76
100
AcDbEntity
  8
1
  6
Continuous
 62
     7
100
AcDbLine
 10
-1453.266143973935
 20
12.15414506930166
 30
0.0
 11
-1454.914437314509
 21
11.99481004637956
 31
0.0
  0
LINE
  5
C0
102
{ACAD_REACTORS
330
F8
102
}
330
76
100
AcDbEntity
  8
1
  6
Continuous
 62
     7
100
AcDbLine
 10
-1453.266143973935
 20
12.84585493069837
 30
0.0
 11
-1453.266143973935
 21
12.15414506930166
 31
0.0
  0
LINE
  5
C1
102
{ACAD_REACTORS
330
F8
102
}
330
76
100
AcDbEntity
  8
1
  6
Continuous
 62
     7
100
AcDbLine
 10
-1454.914437314509
 20
13.00518995362044
 30
0.0
 11
-1453.266143973935
 21
12.84585493069837
 31
0.0
  0
LINE
  5
C2
102
{ACAD_REACTORS
330
F9
102
}
330
76
100
AcDbEntity
  8
1
  6
Continuous
 62
     7
100
AcDbLine
 10
-1459.0
 20
14.3204994090616
 30
0.0
 11
-1460.501725975921
 21
16.92156509840201
 31
0.0
  0
LINE
  5
C3
102
{ACAD_REACTORS
330
F9
102
}
330
76
100
AcDbEntity
  8
1
  6
Continuous
 62
     7
100
AcDbLine
 10
-1459.0
 20
12.15357139602946
 30
0.0
 11
-1457.371479104836
 21
14.97425232764046
 31
0.0
  0
LINE
  5
C4
102
{ACAD_REACTORS
330
F9
102
}
330
76
100
AcDbEntity
  8
1
  6
Continuous
 62
     7
100
AcDbLine
 10
-1457.371479104836
 20
14.97425232764046
 30
0.0
 11
-1457.371479104836
 21
8.17447123571465
 31
0.0
  0
LINE
  5
C5
102
{ACAD_REACTORS
330
F9
102
}
330
76
100
AcDbEntity
  8
1
  6
Continuous
 62
     7
100
AcDbLine
 10
-1457.371479104836
 20
8.17447123571465
 30
0.0
 11
-1456.562730655083
 21
8.618571117527
 31
0.0
  0
LINE
  5
C6
102
{ACAD_REACTORS
330
F9
102
}
330
76
100
AcDbEntity
  8
1
  6
Continuous
 62
     7
100
AcDbLine
 10
-1456.562730655083
 20
8.618571117527
 30
0.0
 11
-1456.562730655082
 21
16.37504573315675
 31
0.0
  0
LINE
  5
C7
102
{ACAD_REACTORS
330
F9
102
}
330
76
100
AcDbEntity
  8
1
  6
Continuous
 62
     7
100
AcDbLine
 10
-1456.562730655082
 20
16.37504573315675
 30
0.0
 11
-1457.498274024079
 21
16.92156509840201
 31
0.0
  0
LINE
  5
C8
102
{ACAD_REACTORS
330
F9
102
}
330
76
100
AcDbEntity
  8
1
  6
Continuous
 62
     7
100
AcDbLine
 10
-1457.498274024079
 20
16.92156509840201
 30
0.0
 11
-1459.0
 21
14.3204994090616
 31
0.0
  0
LINE
  5
C9
102
{ACAD_REACTORS
330
F9
102
}
330
76
100
AcDbEntity
  8
1
  6
Continuous
 62
     7
100
AcDbLine
 10
-1460.637675210966
 20
14.99010806771945
 30
0.0
 11
-1459.0
 21
12.15357139602946
 31
0.0
  0
LINE
  5
CA
102
{ACAD_REACTORS
330
F9
102
}
330
76
100
AcDbEntity
  8
1
  6
Continuous
 62
     7
100
AcDbLine
 10
-1460.637675210967
 20
10.06021043681501
 30
0.0
 11
-1460.637675210966
 21
14.99010806771945
 31
0.0
  0
LINE
  5
CB
102
{ACAD_REACTORS
330
F9
102
}
330
76
100
AcDbEntity
  8
1
  6
Continuous
 62
     7
100
AcDbLine
 10
-1461.445537311643
 20
10.52662983810855
 30
0.0
 11
-1460.637675210967
 21
10.06021043681501
 31
0.0
  0
LINE
  5
CC
102
{ACAD_REACTORS
330
F9
102
}
330
76
100
AcDbEntity
  8
1
  6
Continuous
 62
     7
100
AcDbLine
 10
-1461.44003332965
 20
16.37983309514399
 30
0.0
 11
-1461.445537311643
 21
10.52662983810855
 31
0.0
  0
LINE
  5
CD
102
{ACAD_REACTORS
330
F9
102
}
330
76
100
AcDbEntity
  8
1
  6
Continuous
 62
     7
100
AcDbLine
 10
-1460.501725975921
 20
16.92156509840201
 30
0.0
 11
-1461.44003332965
 21
16.37983309514399
 31
0.0
  0
LINE
  5
CE
102
{ACAD_REACTORS
330
FA
102
}
330
76
100
AcDbEntity
  8
1
  6
Continuous
 62
     7
100
AcDbLine
 10
-1462.276814235737
 20
15.89671741376161
 30
0.0
 11
-1463.085562685491
 21
15.4297862785895
 31
0.0
  0
LINE
  5
CF
102
{ACAD_REACTORS
330
FA
102
}
330
76
100
AcDbEntity
  8
1
  6
Continuous
 62
     7
100
AcDbLine
 10
-1462.276814235737
 20
10.03714485658266
 30
0.0
 11
-1462.276814235737
 21
15.89671741376161
 31
0.0
  0
LINE
  5
D0
102
{ACAD_REACTORS
330
FA
102
}
330
76
100
AcDbEntity
  8
1
  6
Continuous
 62
     7
100
AcDbLine
 10
-1459.0
 20
8.14527527549539
 30
0.0
 11
-1462.276814235737
 21
10.03714485658266
 31
0.0
  0
LINE
  5
D1
102
{ACAD_REACTORS
330
FA
102
}
330
76
100
AcDbEntity
  8
1
  6
Continuous
 62
     7
100
AcDbLine
 10
-1459.0
 20
7.2114130051512
 30
0.0
 11
-1459.0
 21
8.14527527549539
 31
0.0
  0
LINE
  5
D2
102
{ACAD_REACTORS
330
FA
102
}
330
76
100
AcDbEntity
  8
1
  6
Continuous
 62
     7
100
AcDbLine
 10
-1463.085562685491
 20
9.57021372141055
 30
0.0
 11
-1459.0
 21
7.2114130051512
 31
0.0
  0
LINE
  5
D3
102
{ACAD_REACTORS
330
FA
102
}
330
76
100
AcDbEntity
  8
1
  6
Continuous
 62
     7
100
AcDbLine
 10
-1463.085562685491
 20
15.4297862785895
 30
0.0
 11
-1463.085562685491
 21
9.57021372141055
 31
0.0
  0
LINE
  5
D4
102
{ACAD_REACTORS
330
FB
102
}
330
76
100
AcDbEntity
  8
1
  6
Continuous
 62
     7
100
AcDbLine
 10
-1463.958440909644
 20
10.07417019909499
 30
0.0
 11
-1464.767189359398
 21
10.5411013342671
 31
0.0
  0
LINE
  5
D5
102
{ACAD_REACTORS
330
FB
102
}
330
76
100
AcDbEntity
  8
1
  6
Continuous
 62
     7
100
AcDbLine
 10
-1463.958440909644
 20
14.92582980090506
 30
0.0
 11
-1463.958440909644
 21
10.07417019909499
 31
0.0
  0
LINE
  5
D6
102
{ACAD_REACTORS
330
FB
102
}
330
76
100
AcDbEntity
  8
1
  6
Continuous
 62
     7
100
AcDbLine
 10
-1464.767189359398
 20
14.45889866573295
 30
0.0
 11
-1463.958440909644
 21
14.92582980090506
 31
0.0
  0
LINE
  5
D7
102
{ACAD_REACTORS
330
FB
102
}
330
76
100
AcDbEntity
  8
1
  6
Continuous
 62
     7
100
AcDbLine
 10
-1464.767189359398
 20
10.5411013342671
 30
0.0
 11
-1464.767189359398
 21
14.45889866573295
 31
0.0
  0
LINE
  5
D8
330
76
100
AcDbEntity
  8
1
  6
Continuous
 62
     7
100
AcDbLine
 10
-1473.0
 20
20.00000000000001
 30
0.0
 11
-1473.0
 21
5.0
 31
0.0
  0
CIRCLE
  5
D9
330
76
100
AcDbEntity
  8
1
  6
Continuous
 62
     7
100
AcDbCircle
 10
-1611.2
 20
24.00000000000001
 30
0.0
 40
1.400000000000091
  0
CIRCLE
  5
DA
330
76
100
AcDbEntity
  8
1
  6
Continuous
 62
     7
100
AcDbCircle
 10
-1611.2
 20
24.00000000000001
 30
0.0
 40
2.450000000000045
  0
MTEXT
  5
DC
330
76
100
AcDbEntity
  8
1
 62
     7
100
AcDbMText
 10
-1442.5
 20
52.83333333333339
 30
0.0
 40
3.5
 41
0.0
 71
     5
 72
     1
  1
C
  7
CONVERTER_11
 73
     1
 44
1.32052821128451
  0
MTEXT
  5
DD
330
76
100
AcDbEntity
  8
1
 62
     7
100
AcDbMText
 10
-1442.5
 20
148.5000000000003
 30
0.0
 40
3.5
 41
0.0
 71
     5
 72
     1
  1
B
  7
CONVERTER_11
 73
     1
 44
1.32052821128451
  0
MTEXT
  5
DE
330
76
100
AcDbEntity
  8
1
 62
     7
100
AcDbMText
 10
-1442.5
 20
244.1666666666669
 30
0.0
 40
3.5
 41
0.0
 71
     5
 72
     1
  1
A
  7
CONVERTER_11
 73
     1
 44
1.32052821128451
  0
MTEXT
  5
DF
330
76
100
AcDbEntity
  8
1
 62
     7
100
AcDbMText
 10
-1626.5
 20
52.83333333333339
 30
0.0
 40
3.5
 41
0.0
 71
     5
 72
     1
  1
C
  7
CONVERTER_11
 73
     1
 44
1.32052821128451
  0
MTEXT
  5
E0
330
76
100
AcDbEntity
  8
1
 62
     7
100
AcDbMText
 10
-1489.75
 20
2.50000000000006
 30
0.0
 40
3.5
 41
0.0
 71
     5
 72
     1
  1
2
  7
CONVERTER_11
 73
     1
 44
1.32052821128451
  0
MTEXT
  5
E1
330
76
100
AcDbEntity
  8
1
 62
     7
100
AcDbMText
 10
-1579.25
 20
2.50000000000011
 30
0.0
 40
3.5
 41
0.0
 71
     5
 72
     1
  1
1
  7
CONVERTER_11
 73
     1
 44
1.32052821128451
  0
MTEXT
  5
E2
330
76
100
AcDbEntity
  8
1
 62
     7
100
AcDbMText
 10
-1626.5
 20
148.5000000000003
 30
0.0
 40
3.5
 41
0.0
 71
     5
 72
     1
  1
B
  7
CONVERTER_11
 73
     1
 44
1.32052821128451
  0
MTEXT
  5
E3
330
76
100
AcDbEntity
  8
1
 62
     7
100
AcDbMText
 10
-1489.75
 20
294.5000000000003
 30
0.0
 40
3.5
 41
0.0
 71
     5
 72
     1
  1
2
  7
CONVERTER_11
 73
     1
 44
1.32052821128451
  0
MTEXT
  5
E4
330
76
100
AcDbEntity
  8
1
 62
     7
100
AcDbMText
 10
-1579.25
 20
294.5000000000003
 30
0.0
 40
3.5
 41
0.0
 71
     5
 72
     1
  1
1
  7
CONVERTER_11
 73
     1
 44
1.32052821128451
  0
MTEXT
  5
E5
330
76
100
AcDbEntity
  8
1
 62
     7
100
AcDbMText
 10
-1626.5
 20
244.1666666666669
 30
0.0
 40
3.5
 41
0.0
 71
     5
 72
     1
  1
A
  7
CONVERTER_11
 73
     1
 44
1.32052821128451
  0
MTEXT
  5
E6
330
76
100
AcDbEntity
  8
1
 62
     7
100
AcDbMText
 10
-1634.0
 20
151.4999999999998
 30
0.0
 40
4.0
 41
0.0
 71
     5
 72
     1
  1
Diritti riservati      All rights reserved
  7
CONVERTER_11
 11
0.0
 21
1.0
 31
0.0
 73
     1
 44
1.32052821128451
  0
MTEXT
  5
E8
330
76
100
AcDbEntity
  8
1
 62
     7
100
AcDbMText
 10
-1609.0
 20
17.50000000000001
 30
0.0
 40
2.5
 41
0.0
 71
     5
 72
     1
  1
Original Size A4
  7
CONVERTER_12
 73
     1
 44
0.60024009603842
  0
MTEXT
  5
E9
330
76
100
AcDbEntity
  8
1
 62
     7
100
AcDbMText
 10
-1480.323699311257
 20
9.9999999999999
 30
0.0
 40
4.5
 41
0.0
 71
     5
 72
     1
  1
2:1
  7
CONVERTER_11
 73
     1
 44
1.32052821128451
  0
MTEXT
  5
EA
330
76
100
AcDbEntity
  8
1
 62
     7
100
AcDbMText
 10
-1480.323699311257
 20
15.50000000000001
 30
0.0
 40
3.0
 41
0.0
 71
     5
 72
     1
  1
Scale
  7
CONVERTER_11
 73
     1
 44
1.32052821128451
  0
MTEXT
  5
EC
330
76
100
AcDbEntity
  8
1
 62
     7
100
AcDbMText
 10
-1589.0
 20
12.50000000000001
 30
0.0
 40
3.0
 41
0.0
 71
     4
 72
     1
  1
C30MA 120 P\PTurned silver plated finger proof male crimp contact, 300 A,\Pwire cross-section 120 mm² / AWG 4/0
  7
CONVERTER_13
 73
     1
 44
0.90036014405762
  0
MTEXT
  5
ED
330
76
100
AcDbEntity
  8
1
 62
     7
100
AcDbMText
 10
-1611.5
 20
7.49999999999984
 30
0.0
 40
3.0
 41
0.0
 71
     4
 72
     1
  1
S.Diasparra
  7
CONVERTER_11
 73
     1
 44
1.32052821128451
  0
MTEXT
  5
EE
330
76
100
AcDbEntity
  8
1
 62
     7
100
AcDbMText
 10
-1621.5
 20
7.49999999999984
 30
0.0
 40
3.0
 41
0.0
 71
     4
 72
     1
  1
Sign.
  7
CONVERTER_11
 73
     1
 44
1.32052821128451
  0
MTEXT
  5
EF
330
76
100
AcDbEntity
  8
1
 62
     7
100
AcDbMText
 10
-1611.5
 20
12.49999999999989
 30
0.0
 40
3.0
 41
0.0
 71
     4
 72
     1
  1
21/02/23
  7
CONVERTER_11
 73
     1
 44
1.32052821128451
  0
MTEXT
  5
F0
330
76
100
AcDbEntity
  8
1
 62
     7
100
AcDbMText
 10
-1621.5
 20
12.49999999999989
 30
0.0
 40
3.0
 41
0.0
 71
     4
 72
     1
  1
Date
  7
CONVERTER_11
 73
     1
 44
1.32052821128451
  0
MTEXT
  5
F1
330
76
100
AcDbEntity
  8
1
 62
     7
100
AcDbMText
 10
-1600.5
 20
25.50000000000001
 30
0.0
 40
2.0
 41
0.0
 71
     5
 72
     1
  1
Dimensions
  7
CONVERTER_11
 73
     1
 44
0.90036014405762
  0
MTEXT
  5
F2
330
76
100
AcDbEntity
  8
1
 62
     7
100
AcDbMText
 10
-1600.5
 20
22.50000000000001
 30
0.0
 40
2.0
 41
0.0
 71
     5
 72
     1
  1
in mm
  7
CONVERTER_11
 73
     1
 44
0.60024009603842
  0
MTEXT
  5
F3
330
76
100
AcDbEntity
  8
1
 62
     7
100
AcDbMText
 10
-1589.0
 20
24.00000000000001
 30
0.0
 40
3.0
 41
0.0
 71
     4
 72
     1
  1
Simplified representation with dimensions without tolerance
  7
CONVERTER_11
 73
     1
 44
0.90036014405762
  0
MTEXT
  5
F4
330
76
100
AcDbEntity
  8
1
 62
     7
100
AcDbMText
 10
-1619.0
 20
30.50000000000006
 30
0.0
 40
2.0
 41
0.0
 71
     5
 72
     1
  1
REV.
  7
CONVERTER_11
 73
     1
 44
0.90036014405762
  0
MTEXT
  5
F5
330
76
100
AcDbEntity
  8
1
 62
     7
100
AcDbMText
 10
-1606.5
 20
30.50000000000006
 30
0.0
 40
2.0
 41
0.0
 71
     5
 72
     1
  1
DATE
  7
CONVERTER_11
 73
     1
 44
0.90036014405762
  0
MTEXT
  5
F6
330
76
100
AcDbEntity
  8
1
 62
     7
100
AcDbMText
 10
-1591.5
 20
30.50000000000006
 30
0.0
 40
2.0
 41
0.0
 71
     5
 72
     1
  1
SIGNATURE
  7
CONVERTER_11
 73
     1
 44
0.90036014405762
  0
HATCH
  5
F7
330
76
100
AcDbEntity
  8
1
  6
Continuous
 62
     7
100
AcDbHatch
 10
0.0
 20
0.0
 30
0.0
210
0.0
220
0.0
230
1.0
  2
SOLID
 70
     1
 71
     1
 91
        2
 92
        1
 93
        4
 72
     1
 10
-1459.0
 20
18.84428402589045
 11
-1448.01137772951
 21
12.50000000000001
 72
     1
 10
-1448.01137772951
 20
12.50000000000001
 11
-1459.0
 21
6.155715974109597
 72
     1
 10
-1459.0
 20
6.155715974109597
 11
-1469.98862227049
 21
12.50000000000001
 72
     1
 10
-1469.98862227049
 20
12.50000000000001
 11
-1459.0
 21
18.84428402589045
 97
        4
330
B3
330
B2
330
B4
330
B5
 92
       16
 93
        4
 72
     1
 10
-1469.68862227049
 20
12.50000000000001
 11
-1459.0
 21
18.67107894513354
 72
     1
 10
-1459.0
 20
18.67107894513354
 11
-1448.31137772951
 21
12.50000000000001
 72
     1
 10
-1448.31137772951
 20
12.50000000000001
 11
-1459.0
 21
6.328921054866498
 72
     1
 10
-1459.0
 20
6.328921054866498
 11
-1469.68862227049
 21
12.50000000000001
 97
        4
330
AE
330
AF
330
B0
330
B1
 75
     0
 76
     1
 98
        1
 10
0.0
 20
0.0
  0
HATCH
  5
F8
330
76
100
AcDbEntity
  8
1
  6
Continuous
 62
     7
100
AcDbHatch
 10
0.0
 20
0.0
 30
0.0
210
0.0
220
0.0
230
1.0
  2
SOLID
 70
     1
 71
     1
 91
        1
 92
        1
 93
       12
 72
     1
 10
-1455.723185764263
 20
15.89671741376161
 11
-1455.723185764263
 21
9.10328258623845
 72
     1
 10
-1455.723185764263
 20
9.10328258623845
 11
-1453.266143973935
 21
10.5218563252941
 72
     1
 10
-1453.266143973935
 20
10.5218563252941
 11
-1453.266143973935
 21
11.27056051472299
 72
     1
 10
-1453.266143973935
 20
11.27056051472299
 11
-1454.914437314509
 21
10.6112431784936
 72
     1
 10
-1454.914437314509
 20
10.6112431784936
 11
-1454.914437314509
 21
11.99481004637956
 72
     1
 10
-1454.914437314509
 20
11.99481004637956
 11
-1453.266143973935
 21
12.15414506930166
 72
     1
 10
-1453.266143973935
 20
12.15414506930166
 11
-1453.266143973935
 21
12.84585493069837
 72
     1
 10
-1453.266143973935
 20
12.84585493069837
 11
-1454.914437314509
 21
13.00518995362044
 72
     1
 10
-1454.914437314509
 20
13.00518995362044
 11
-1454.914437314509
 21
14.38875682150641
 72
     1
 10
-1454.914437314509
 20
14.38875682150641
 11
-1453.266143973935
 21
13.72943948527701
 72
     1
 10
-1453.266143973935
 20
13.72943948527701
 11
-1453.266143973935
 21
14.47814367470595
 72
     1
 10
-1453.266143973935
 20
14.47814367470595
 11
-1455.723185764263
 21
15.89671741376161
 97
       12
330
BC
330
BD
330
BE
330
C1
330
C0
330
BF
330
B6
330
B7
330
B8
330
B9
330
BA
330
BB
 75
     0
 76
     1
 98
        1
 10
0.0
 20
0.0
  0
HATCH
  5
F9
330
76
100
AcDbEntity
  8
1
  6
Continuous
 62
     7
100
AcDbHatch
 10
0.0
 20
0.0
 30
0.0
210
0.0
220
0.0
230
1.0
  2
SOLID
 70
     1
 71
     1
 91
        1
 92
        1
 93
       12
 72
     1
 10
-1461.44003332965
 20
16.37983309514399
 11
-1461.445537311643
 21
10.52662983810855
 72
     1
 10
-1461.445537311643
 20
10.52662983810855
 11
-1460.637675210967
 21
10.06021043681501
 72
     1
 10
-1460.637675210967
 20
10.06021043681501
 11
-1460.637675210966
 21
14.99010806771945
 72
     1
 10
-1460.637675210966
 20
14.99010806771945
 11
-1459.0
 21
12.15357139602946
 72
     1
 10
-1459.0
 20
12.15357139602946
 11
-1457.371479104836
 21
14.97425232764046
 72
     1
 10
-1457.371479104836
 20
14.97425232764046
 11
-1457.371479104836
 21
8.174471235714648
 72
     1
 10
-1457.371479104836
 20
8.174471235714648
 11
-1456.562730655083
 21
8.618571117526997
 72
     1
 10
-1456.562730655083
 20
8.618571117526997
 11
-1456.562730655082
 21
16.37504573315675
 72
     1
 10
-1456.562730655082
 20
16.37504573315675
 11
-1457.498274024079
 21
16.92156509840201
 72
     1
 10
-1457.498274024079
 20
16.92156509840201
 11
-1459.0
 21
14.3204994090616
 72
     1
 10
-1459.0
 20
14.3204994090616
 11
-1460.501725975921
 21
16.92156509840201
 72
     1
 10
-1460.501725975921
 20
16.92156509840201
 11
-1461.44003332965
 21
16.37983309514399
 97
       12
330
C2
330
C8
330
C7
330
C6
330
C5
330
C4
330
C3
330
C9
330
CA
330
CB
330
CC
330
CD
 75
     0
 76
     1
 98
        1
 10
0.0
 20
0.0
  0
HATCH
  5
FA
330
76
100
AcDbEntity
  8
1
  6
Continuous
 62
     7
100
AcDbHatch
 10
0.0
 20
0.0
 30
0.0
210
0.0
220
0.0
230
1.0
  2
SOLID
 70
     1
 71
     1
 91
        1
 92
        1
 93
        6
 72
     1
 10
-1463.085562685491
 20
15.4297862785895
 11
-1463.085562685491
 21
9.570213721410553
 72
     1
 10
-1463.085562685491
 20
9.570213721410553
 11
-1459.0
 21
7.211413005151201
 72
     1
 10
-1459.0
 20
7.211413005151201
 11
-1459.0
 21
8.145275275495393
 72
     1
 10
-1459.0
 20
8.145275275495393
 11
-1462.276814235737
 21
10.03714485658266
 72
     1
 10
-1462.276814235737
 20
10.03714485658266
 11
-1462.276814235737
 21
15.89671741376161
 72
     1
 10
-1462.276814235737
 20
15.89671741376161
 11
-1463.085562685491
 21
15.4297862785895
 97
        6
330
CF
330
D0
330
D1
330
D2
330
D3
330
CE
 75
     0
 76
     1
 98
        1
 10
0.0
 20
0.0
  0
HATCH
  5
FB
330
76
100
AcDbEntity
  8
1
  6
Continuous
 62
     7
100
AcDbHatch
 10
0.0
 20
0.0
 30
0.0
210
0.0
220
0.0
230
1.0
  2
SOLID
 70
     1
 71
     1
 91
        1
 92
        1
 93
        4
 72
     1
 10
-1463.958440909644
 20
14.92582980090506
 11
-1463.958440909644
 21
10.07417019909499
 72
     1
 10
-1463.958440909644
 20
10.07417019909499
 11
-1464.767189359398
 21
10.5411013342671
 72
     1
 10
-1464.767189359398
 20
10.5411013342671
 11
-1464.767189359398
 21
14.45889866573295
 72
     1
 10
-1464.767189359398
 20
14.45889866573295
 11
-1463.958440909644
 21
14.92582980090506
 97
        4
330
D5
330
D4
330
D7
330
D6
 75
     0
 76
     1
 98
        1
 10
0.0
 20
0.0
  0
ENDBLK
  5
78
330
76
100
AcDbEntity
  8
0
100
AcDbBlockEnd
  0
BLOCK
  5
7B
330
79
100
AcDbEntity
  8
0
100
AcDbBlockBegin
  2
A4_new
 70
     0
 10
-720.0
 20
0.0
 30
0.0
  3
A4_new
  1

  0
INSERT
  5
7A
330
79
100
AcDbEntity
  8
1
100
AcDbBlockReference
  2
_formato_A4
 10
-720.0
 20
0.0
 30
0.0
 41
0.5
 42
0.5
 43
0.5
  0
ENDBLK
  5
7C
330
79
100
AcDbEntity
  8
0
100
AcDbBlockEnd
  0
BLOCK
  5
198
330
191
100
AcDbEntity
  8
0
100
AcDbBlockBegin
  2
*D3
 70
     1
 10
0.0
 20
0.0
 30
0.0
  3
*D3
  1

  0
LINE
  5
192
330
191
100
AcDbEntity
  8
1
  6
Continuous
 62
     2
100
AcDbLine
 10
-738.2500000000002
 20
49.49999999999987
 30
0.0
 11
-738.2500000000002
 21
63.50000000000129
 31
0.0
  0
LINE
  5
193
330
191
100
AcDbEntity
  8
1
  6
Continuous
 62
     2
100
AcDbLine
 10
-740.0000000000002
 20
63.50000000000129
 30
0.0
 11
-737.7500000000002
 21
63.50000000000129
 31
0.0
  0
LINE
  5
194
330
191
100
AcDbEntity
  8
1
  6
Continuous
 62
     2
100
AcDbLine
 10
-740.0000000000002
 20
49.49999999999987
 30
0.0
 11
-737.7500000000002
 21
49.49999999999987
 31
0.0
  0
SOLID
  5
195
330
191
100
AcDbEntity
  8
1
 62
     2
100
AcDbTrace
 10
-738.3816524975877
 20
50.49999999999987
 30
0.0
 11
-738.1183475024128
 21
50.49999999999987
 31
0.0
 12
-738.2500000000002
 22
49.49999999999987
 32
0.0
 13
-738.2500000000002
 23
49.49999999999987
 33
0.0
  0
SOLID
  5
196
330
191
100
AcDbEntity
  8
1
 62
     2
100
AcDbTrace
 10
-738.1183475024128
 20
62.50000000000129
 30
0.0
 11
-738.3816524975877
 21
62.50000000000129
 31
0.0
 12
-738.2500000000002
 22
63.50000000000129
 32
0.0
 13
-738.2500000000002
 23
63.50000000000129
 33
0.0
  0
MTEXT
  5
197
330
191
100
AcDbEntity
  8
1
 62
     4
100
AcDbMText
 10
-739.5500000000002
 20
52.87500000000058
 30
0.0
 40
1.0
 41
0.0
 71
     7
 72
     1
  1
crimp zone
  7
CONVERTER_14
 11
0.0
 21
1.0
 31
0.0
 73
     1
 44
0.60024009603842
  0
ENDBLK
  5
199
330
191
100
AcDbEntity
  8
0
100
AcDbBlockEnd
  0
BLOCK
  5
1A3
330
19C
100
AcDbEntity
  8
0
100
AcDbBlockBegin
  2
*D4
 70
     1
 10
0.0
 20
0.0
 30
0.0
  3
*D4
  1

  0
LINE
  5
19D
330
19C
100
AcDbEntity
  8
1
  6
Continuous
 62
     2
100
AcDbLine
 10
-765.249999999999
 20
49.49999999999987
 30
0.0
 11
-765.249999999999
 21
63.49999999999987
 31
0.0
  0
LINE
  5
19E
330
19C
100
AcDbEntity
  8
1
  6
Continuous
 62
     2
100
AcDbLine
 10
-763.5000000000009
 20
63.49999999999987
 30
0.0
 11
-765.749999999999
 21
63.49999999999987
 31
0.0
  0
LINE
  5
19F
330
19C
100
AcDbEntity
  8
1
  6
Continuous
 62
     2
100
AcDbLine
 10
-763.5
 20
49.49999999999987
 30
0.0
 11
-765.749999999999
 21
49.49999999999987
 31
0.0
  0
SOLID
  5
1A0
330
19C
100
AcDbEntity
  8
1
 62
     2
100
AcDbTrace
 10
-765.44747874638
 20
50.99999999999987
 30
0.0
 11
-765.0525212536179
 21
50.99999999999987
 31
0.0
 12
-765.249999999999
 22
49.49999999999987
 32
0.0
 13
-765.249999999999
 23
49.49999999999987
 33
0.0
  0
SOLID
  5
1A1
330
19C
100
AcDbEntity
  8
1
 62
     2
100
AcDbTrace
 10
-765.0525212536179
 20
61.99999999999987
 30
0.0
 11
-765.44747874638
 21
61.99999999999987
 31
0.0
 12
-765.249999999999
 22
63.49999999999987
 32
0.0
 13
-765.249999999999
 23
63.49999999999987
 33
0.0
  0
MTEXT
  5
1A2
330
19C
100
AcDbEntity
  8
1
 62
     4
100
AcDbMText
 10
-766.249999999999
 20
55.59999999999987
 30
0.0
 40
1.5
 41
0.0
 71
     7
 72
     1
  1
14
  7
CONVERTER_14
 11
0.0
 21
1.0
 31
0.0
 73
     1
 44
0.60024009603842
  0
ENDBLK
  5
1A4
330
19C
100
AcDbEntity
  8
0
100
AcDbBlockEnd
  0
BLOCK
  5
1B0
330
1A7
100
AcDbEntity
  8
0
100
AcDbBlockBegin
  2
*D5
 70
     1
 10
0.0
 20
0.0
 30
0.0
  3
*D5
  1

  0
LINE
  5
1A8
330
1A7
100
AcDbEntity
  8
1
  6
Continuous
 62
     2
100
AcDbLine
 10
-765.249999999999
 20
49.49999999999987
 30
0.0
 11
-765.249999999999
 21
52.49999999999987
 31
0.0
  0
LINE
  5
1A9
330
1A7
100
AcDbEntity
  8
1
  6
Continuous
 62
     2
100
AcDbLine
 10
-765.249999999999
 20
46.50000000000004
 30
0.0
 11
-765.249999999999
 21
49.49999999999987
 31
0.0
  0
LINE
  5
1AA
330
1A7
100
AcDbEntity
  8
1
  6
Continuous
 62
     2
100
AcDbLine
 10
-765.249999999999
 20
41.51355398522477
 30
0.0
 11
-765.249999999999
 21
46.50000000000004
 31
0.0
  0
LINE
  5
1AB
330
1A7
100
AcDbEntity
  8
1
  6
Continuous
 62
     2
100
AcDbLine
 10
-763.5
 20
49.49999999999987
 30
0.0
 11
-765.749999999999
 21
49.49999999999987
 31
0.0
  0
LINE
  5
1AC
330
1A7
100
AcDbEntity
  8
1
  6
Continuous
 62
     2
100
AcDbLine
 10
-762.4999999999998
 20
46.50000000000004
 30
0.0
 11
-765.749999999999
 21
46.50000000000004
 31
0.0
  0
SOLID
  5
1AD
330
1A7
100
AcDbEntity
  8
1
 62
     2
100
AcDbTrace
 10
-765.0525212536179
 20
45.00000000000004
 30
0.0
 11
-765.44747874638
 21
45.00000000000004
 31
0.0
 12
-765.249999999999
 22
46.50000000000004
 32
0.0
 13
-765.249999999999
 23
46.50000000000004
 33
0.0
  0
SOLID
  5
1AE
330
1A7
100
AcDbEntity
  8
1
 62
     2
100
AcDbTrace
 10
-765.44747874638
 20
50.99999999999987
 30
0.0
 11
-765.0525212536179
 21
50.99999999999987
 31
0.0
 12
-765.249999999999
 22
49.49999999999987
 32
0.0
 13
-765.249999999999
 23
49.49999999999987
 33
0.0
  0
MTEXT
  5
1AF
330
1A7
100
AcDbEntity
  8
1
 62
     4
100
AcDbMText
 10
-766.249999999999
 20
41.51355398522477
 30
0.0
 40
1.5
 41
0.0
 71
     7
 72
     1
  1
3
  7
CONVERTER_14
 11
0.0
 21
1.0
 31
0.0
 73
     1
 44
0.60024009603842
  0
ENDBLK
  5
1B1
330
1A7
100
AcDbEntity
  8
0
100
AcDbBlockEnd
  0
BLOCK
  5
1BB
330
1B4
100
AcDbEntity
  8
0
100
AcDbBlockBegin
  2
*D6
 70
     1
 10
0.0
 20
0.0
 30
0.0
  3
*D6
  1

  0
LINE
  5
1B5
330
1B4
100
AcDbEntity
  8
1
  6
Continuous
 62
     2
100
AcDbLine
 10
-796.2499999999999
 20
41.50000000000087
 30
0.0
 11
-775.2499999999999
 21
41.50000000000087
 31
0.0
  0
LINE
  5
1B6
330
1B4
100
AcDbEntity
  8
1
  6
Continuous
 62
     2
100
AcDbLine
 10
-775.2499999999999
 20
46.25000000000124
 30
0.0
 11
-775.2499999999999
 21
41.00000000000087
 31
0.0
  0
LINE
  5
1B7
330
1B4
100
AcDbEntity
  8
1
  6
Continuous
 62
     2
100
AcDbLine
 10
-796.2499999999999
 20
46.25000000000005
 30
0.0
 11
-796.2499999999999
 21
41.00000000000087
 31
0.0
  0
SOLID
  5
1B8
330
1B4
100
AcDbEntity
  8
1
 62
     2
100
AcDbTrace
 10
-794.7499999999999
 20
41.69747874638196
 30
0.0
 11
-794.7499999999999
 21
41.30252125361977
 31
0.0
 12
-796.2499999999999
 22
41.50000000000087
 32
0.0
 13
-796.2499999999999
 23
41.50000000000087
 33
0.0
  0
SOLID
  5
1B9
330
1B4
100
AcDbEntity
  8
1
 62
     2
100
AcDbTrace
 10
-776.7499999999999
 20
41.30252125361977
 30
0.0
 11
-776.7499999999999
 21
41.69747874638196
 31
0.0
 12
-775.2499999999999
 22
41.50000000000087
 32
0.0
 13
-775.2499999999999
 23
41.50000000000087
 33
0.0
  0
MTEXT
  5
1BA
330
1B4
100
AcDbEntity
  8
1
 62
     4
100
AcDbMText
 10
-787.0549999999963
 20
42.49999701839673
 30
0.0
 40
1.5
 41
0.0
 71
     7
 72
     1
  1
\C4;ø\C4;21
  7
CONVERTER_14
 11
0.9999999999970619
 21
2.424068405545306E-6
 31
0.0
 73
     1
 44
0.60024009603842
  0
ENDBLK
  5
1BC
330
1B4
100
AcDbEntity
  8
0
100
AcDbBlockEnd
  0
BLOCK
  5
1C6
330
1BF
100
AcDbEntity
  8
0
100
AcDbBlockBegin
  2
*D7
 70
     1
 10
0.0
 20
0.0
 30
0.0
  3
*D7
  1

  0
LINE
  5
1C0
330
1BF
100
AcDbEntity
  8
1
  6
Continuous
 62
     2
100
AcDbLine
 10
-759.4999999999998
 20
41.50000000000261
 30
0.0
 11
-743.9999999999998
 21
41.50000000000261
 31
0.0
  0
LINE
  5
1C1
330
1BF
100
AcDbEntity
  8
1
  6
Continuous
 62
     2
100
AcDbLine
 10
-743.9999999999998
 20
48.51794919243211
 30
0.0
 11
-743.9999999999998
 21
41.00000000000261
 31
0.0
  0
LINE
  5
1C2
330
1BF
100
AcDbEntity
  8
1
  6
Continuous
 62
     2
100
AcDbLine
 10
-759.4999999999998
 20
48.5179491924312
 30
0.0
 11
-759.4999999999998
 21
41.00000000000261
 31
0.0
  0
SOLID
  5
1C3
330
1BF
100
AcDbEntity
  8
1
 62
     2
100
AcDbTrace
 10
-757.9999999999998
 20
41.6974787463837
 30
0.0
 11
-757.9999999999998
 21
41.30252125362151
 31
0.0
 12
-759.4999999999998
 22
41.50000000000261
 32
0.0
 13
-759.4999999999998
 23
41.50000000000261
 33
0.0
  0
SOLID
  5
1C4
330
1BF
100
AcDbEntity
  8
1
 62
     2
100
AcDbTrace
 10
-745.4999999999998
 20
41.30252125362151
 30
0.0
 11
-745.4999999999998
 21
41.6974787463837
 31
0.0
 12
-743.9999999999998
 22
41.50000000000261
 32
0.0
 13
-743.9999999999998
 23
41.50000000000261
 33
0.0
  0
MTEXT
  5
1C5
330
1BF
100
AcDbEntity
  8
1
 62
     4
100
AcDbMText
 10
-753.9924999999962
 20
42.64999701839847
 30
0.0
 40
1.5
 41
0.0
 71
     7
 72
     1
  1
\C4;ø\C4;15,5
  7
CONVERTER_14
 11
0.9999999999970619
 21
2.424068405545306E-6
 31
0.0
 73
     1
 44
0.60024009603842
  0
ENDBLK
  5
1C7
330
1BF
100
AcDbEntity
  8
0
100
AcDbBlockEnd
  0
BLOCK
  5
1D1
330
1CA
100
AcDbEntity
  8
0
100
AcDbBlockBegin
  2
*D8
 70
     1
 10
0.0
 20
0.0
 30
0.0
  3
*D8
  1

  0
LINE
  5
1CB
330
1CA
100
AcDbEntity
  8
1
  6
Continuous
 62
     2
100
AcDbLine
 10
-801.2500000000017
 20
46.50000000000006
 30
0.0
 11
-801.2500000000017
 21
95.70000000000073
 31
0.0
  0
LINE
  5
1CC
330
1CA
100
AcDbEntity
  8
1
  6
Continuous
 62
     2
100
AcDbLine
 10
-789.8718091489408
 20
95.70000000000073
 30
0.0
 11
-801.7500000000017
 21
95.70000000000073
 31
0.0
  0
LINE
  5
1CD
330
1CA
100
AcDbEntity
  8
1
  6
Continuous
 62
     2
100
AcDbLine
 10
-796.4999999999999
 20
46.50000000000006
 30
0.0
 11
-801.7500000000017
 21
46.50000000000006
 31
0.0
  0
SOLID
  5
1CE
330
1CA
100
AcDbEntity
  8
1
 62
     2
100
AcDbTrace
 10
-801.4474787463828
 20
48.00000000000006
 30
0.0
 11
-801.0525212536206
 21
48.00000000000006
 31
0.0
 12
-801.2500000000017
 22
46.50000000000006
 32
0.0
 13
-801.2500000000017
 23
46.50000000000006
 33
0.0
  0
SOLID
  5
1CF
330
1CA
100
AcDbEntity
  8
1
 62
     2
100
AcDbTrace
 10
-801.0525212536206
 20
94.20000000000073
 30
0.0
 11
-801.4474787463828
 21
94.20000000000073
 31
0.0
 12
-801.2500000000017
 22
95.70000000000073
 32
0.0
 13
-801.2500000000017
 23
95.70000000000073
 33
0.0
  0
MTEXT
  5
1D0
330
1CA
100
AcDbEntity
  8
1
 62
     4
100
AcDbMText
 10
-802.4000000000018
 20
69.03750000000039
 30
0.0
 40
1.5
 41
0.0
 71
     7
 72
     1
  1
49,2
  7
CONVERTER_14
 11
0.0
 21
1.0
 31
0.0
 73
     1
 44
0.60024009603842
  0
ENDBLK
  5
1D2
330
1CA
100
AcDbEntity
  8
0
100
AcDbBlockEnd
  0
BLOCK
  5
1DD
330
1D5
100
AcDbEntity
  8
0
100
AcDbBlockBegin
  2
*D9
 70
     1
 10
0.0
 20
0.0
 30
0.0
  3
*D9
  1

  0
LINE
  5
1D6
330
1D5
100
AcDbEntity
  8
1
  6
Continuous
 62
     2
100
AcDbLine
 10
-775.2500000000013
 20
77.70000000000162
 30
0.0
 11
-770.2497035193358
 21
77.70000000000162
 31
0.0
  0
LINE
  5
1D7
330
1D5
100
AcDbEntity
  8
1
  6
Continuous
 62
     2
100
AcDbLine
 10
-796.2500000000013
 20
77.70000000000162
 30
0.0
 11
-775.2500000000013
 21
77.70000000000162
 31
0.0
  0
LINE
  5
1D8
330
1D5
100
AcDbEntity
  8
1
  6
Continuous
 62
     2
100
AcDbLine
 10
-775.2500000000013
 20
72.95000000000135
 30
0.0
 11
-775.2500000000013
 21
78.20000000000162
 31
0.0
  0
LINE
  5
1D9
330
1D5
100
AcDbEntity
  8
1
  6
Continuous
 62
     2
100
AcDbLine
 10
-796.2500000000013
 20
72.95000000000016
 30
0.0
 11
-796.2500000000013
 21
78.20000000000162
 31
0.0
  0
SOLID
  5
1DA
330
1D5
100
AcDbEntity
  8
1
 62
     2
100
AcDbTrace
 10
-794.7500000000013
 20
77.89747874638272
 30
0.0
 11
-794.7500000000013
 21
77.50252125362053
 31
0.0
 12
-796.2500000000013
 22
77.70000000000162
 32
0.0
 13
-796.2500000000013
 23
77.70000000000162
 33
0.0
  0
SOLID
  5
1DB
330
1D5
100
AcDbEntity
  8
1
 62
     2
100
AcDbTrace
 10
-776.7500000000013
 20
77.50252125362053
 30
0.0
 11
-776.7500000000013
 21
77.89747874638272
 31
0.0
 12
-775.2500000000013
 22
77.70000000000162
 32
0.0
 13
-775.2500000000013
 23
77.70000000000162
 33
0.0
  0
MTEXT
  5
1DC
330
1D5
100
AcDbEntity
  8
1
 62
     4
100
AcDbMText
 10
-773.2797035193322
 20
78.69999701839748
 30
0.0
 40
1.5
 41
0.0
 71
     7
 72
     1
  1
\C4;ø\C4;21
  7
CONVERTER_14
 11
0.9999999999970619
 21
2.424068405545306E-6
 31
0.0
 73
     1
 44
0.60024009603842
  0
ENDBLK
  5
1DE
330
1D5
100
AcDbEntity
  8
0
100
AcDbBlockEnd
  0
BLOCK
  5
1E8
330
1E1
100
AcDbEntity
  8
0
100
AcDbBlockBegin
  2
*D10
 70
     1
 10
0.0
 20
0.0
 30
0.0
  3
*D10
  1

  0
LINE
  5
1E2
330
1E1
100
AcDbEntity
  8
1
  6
Continuous
 62
     2
100
AcDbLine
 10
-733.2500000000007
 20
46.50000000000112
 30
0.0
 11
-733.2500000000007
 21
70.500000000001
 31
0.0
  0
LINE
  5
1E3
330
1E1
100
AcDbEntity
  8
1
  6
Continuous
 62
     2
100
AcDbLine
 10
-743.7500000000009
 20
70.500000000001
 30
0.0
 11
-732.7500000000007
 21
70.500000000001
 31
0.0
  0
LINE
  5
1E4
330
1E1
100
AcDbEntity
  8
1
  6
Continuous
 62
     2
100
AcDbLine
 10
-740.9999999999998
 20
46.50000000000112
 30
0.0
 11
-732.7500000000007
 21
46.50000000000112
 31
0.0
  0
SOLID
  5
1E5
330
1E1
100
AcDbEntity
  8
1
 62
     2
100
AcDbTrace
 10
-733.4474787463818
 20
48.00000000000112
 30
0.0
 11
-733.0525212536196
 21
48.00000000000112
 31
0.0
 12
-733.2500000000007
 22
46.50000000000112
 32
0.0
 13
-733.2500000000007
 23
46.50000000000112
 33
0.0
  0
SOLID
  5
1E6
330
1E1
100
AcDbEntity
  8
1
 62
     2
100
AcDbTrace
 10
-733.0525212536196
 20
69.000000000001
 30
0.0
 11
-733.4474787463818
 21
69.000000000001
 31
0.0
 12
-733.2500000000007
 22
70.500000000001
 32
0.0
 13
-733.2500000000007
 23
70.500000000001
 33
0.0
  0
MTEXT
  5
1E7
330
1E1
100
AcDbEntity
  8
1
 62
     4
100
AcDbMText
 10
-734.2500000000007
 20
57.37500000000106
 30
0.0
 40
1.5
 41
0.0
 71
     7
 72
     1
  1
24
  7
CONVERTER_14
 11
0.0
 21
1.0
 31
0.0
 73
     1
 44
0.60024009603842
  0
ENDBLK
  5
1E9
330
1E1
100
AcDbEntity
  8
0
100
AcDbBlockEnd
  0
BLOCK
  5
1F5
330
1EC
100
AcDbEntity
  8
0
100
AcDbBlockBegin
  2
*D11
 70
     1
 10
0.0
 20
0.0
 30
0.0
  3
*D11
  1

  0
LINE
  5
1ED
330
1EC
100
AcDbEntity
  8
1
  6
Continuous
 62
     2
100
AcDbLine
 10
-738.2500000000027
 20
92.20000000000098
 30
0.0
 11
-738.2500000000027
 21
88.1625000000009
 31
0.0
  0
LINE
  5
1EE
330
1EC
100
AcDbEntity
  8
1
  6
Continuous
 62
     2
100
AcDbLine
 10
-738.2500000000027
 20
95.70000000000081
 30
0.0
 11
-738.2500000000027
 21
92.20000000000098
 31
0.0
  0
LINE
  5
1EF
330
1EC
100
AcDbEntity
  8
1
  6
Continuous
 62
     2
100
AcDbLine
 10
-738.2500000000027
 20
98.70000000000081
 30
0.0
 11
-738.2500000000027
 21
95.70000000000081
 31
0.0
  0
LINE
  5
1F0
330
1EC
100
AcDbEntity
  8
1
  6
Continuous
 62
     2
100
AcDbLine
 10
-746.7500000000023
 20
92.20000000000098
 30
0.0
 11
-737.7500000000027
 21
92.20000000000098
 31
0.0
  0
LINE
  5
1F1
330
1EC
100
AcDbEntity
  8
1
  6
Continuous
 62
     2
100
AcDbLine
 10
-747.6284560015386
 20
95.70000000000081
 30
0.0
 11
-737.7500000000027
 21
95.70000000000081
 31
0.0
  0
SOLID
  5
1F2
330
1EC
100
AcDbEntity
  8
1
 62
     2
100
AcDbTrace
 10
-738.4474787463838
 20
97.20000000000081
 30
0.0
 11
-738.0525212536216
 21
97.20000000000081
 31
0.0
 12
-738.2500000000027
 22
95.70000000000081
 32
0.0
 13
-738.2500000000027
 23
95.70000000000081
 33
0.0
  0
SOLID
  5
1F3
330
1EC
100
AcDbEntity
  8
1
 62
     2
100
AcDbTrace
 10
-738.0525212536216
 20
90.70000000000098
 30
0.0
 11
-738.4474787463838
 21
90.70000000000098
 31
0.0
 12
-738.2500000000027
 22
92.20000000000098
 32
0.0
 13
-738.2500000000027
 23
92.20000000000098
 33
0.0
  0
MTEXT
  5
1F4
330
1EC
100
AcDbEntity
  8
1
 62
     4
100
AcDbMText
 10
-739.4000000000028
 20
88.1625000000009
 30
0.0
 40
1.5
 41
0.0
 71
     7
 72
     1
  1
3,5
  7
CONVERTER_14
 11
0.0
 21
1.0
 31
0.0
 73
     1
 44
0.60024009603842
  0
ENDBLK
  5
1F6
330
1EC
100
AcDbEntity
  8
0
100
AcDbBlockEnd
  0
BLOCK
  5
200
330
1F9
100
AcDbEntity
  8
0
100
AcDbBlockBegin
  2
*D12
 70
     1
 10
0.0
 20
0.0
 30
0.0
  3
*D12
  1

  0
LINE
  5
1FA
330
1F9
100
AcDbEntity
  8
1
  6
Continuous
 62
     2
100
AcDbLine
 10
-756.5001325752396
 20
100.7000000000008
 30
0.0
 11
-747.0001325752394
 21
100.7000000000008
 31
0.0
  0
LINE
  5
1FB
330
1F9
100
AcDbEntity
  8
1
  6
Continuous
 62
     2
100
AcDbLine
 10
-747.0001325752394
 20
94.15000000000072
 30
0.0
 11
-747.0001325752394
 21
101.2000000000008
 31
0.0
  0
LINE
  5
1FC
330
1F9
100
AcDbEntity
  8
1
  6
Continuous
 62
     2
100
AcDbLine
 10
-756.5001325752396
 20
94.15000000000055
 30
0.0
 11
-756.5001325752396
 21
101.2000000000008
 31
0.0
  0
SOLID
  5
1FD
330
1F9
100
AcDbEntity
  8
1
 62
     2
100
AcDbTrace
 10
-755.0001325752396
 20
100.8974787463819
 30
0.0
 11
-755.0001325752396
 21
100.5025212536197
 31
0.0
 12
-756.5001325752396
 22
100.7000000000008
 32
0.0
 13
-756.5001325752396
 23
100.7000000000008
 33
0.0
  0
SOLID
  5
1FE
330
1F9
100
AcDbEntity
  8
1
 62
     2
100
AcDbTrace
 10
-748.5001325752394
 20
100.5025212536197
 30
0.0
 11
-748.5001325752394
 21
100.8974787463819
 31
0.0
 12
-747.0001325752394
 22
100.7000000000008
 32
0.0
 13
-747.0001325752394
 23
100.7000000000008
 33
0.0
  0
MTEXT
  5
1FF
330
1F9
100
AcDbEntity
  8
1
 62
     4
100
AcDbMText
 10
-753.5426325752359
 20
101.8499970183967
 30
0.0
 40
1.5
 41
0.0
 71
     7
 72
     1
  1
\C4;ø\C4;9,5
  7
CONVERTER_14
 11
0.9999999999970619
 21
2.424068405545306E-6
 31
0.0
 73
     1
 44
0.60024009603842
  0
ENDBLK
  5
201
330
1F9
100
AcDbEntity
  8
0
100
AcDbBlockEnd
  0
ENDSEC
  0
SECTION
  2
ENTITIES
  0
INSERT
  5
7D
330
1F
100
AcDbEntity
  8
0
100
AcDbBlockReference
  2
A4_new
 10
-720.0
 20
0.0
 30
0.0
  0
LINE
  5
FC
330
1F
100
AcDbEntity
  8
1
  6
DASHED
 62
     2
100
AcDbLine
 10
-763.2500000000009
 20
63.49999999999987
 30
0.0
 11
-740.2500000000007
 21
63.50000000000129
 31
0.0
  0
LINE
  5
FD
330
1F
100
AcDbEntity
  8
1
  6
DASHED
 62
     2
100
AcDbLine
 10
-763.25
 20
49.49999999999987
 30
0.0
 11
-740.2499999999999
 21
49.49999999999987
 31
0.0
  0
LINE
  5
FE
330
1F
100
AcDbEntity
  8
1
  6
DOT_CENTER
 62
     2
100
AcDbLine
 10
-763.2500000000009
 20
68.00000000000043
 30
0.0
 11
-757.5000000000009
 21
68.00000000000043
 31
0.0
  0
LINE
  5
FF
330
1F
100
AcDbEntity
  8
0
  6
Continuous
 62
     7
100
AcDbLine
 10
-740.8200000000003
 20
123.261593670245
 30
0.0
 11
-740.8200000000003
 21
123.4929597942713
 31
0.0
  0
LINE
  5
100
330
1F
100
AcDbEntity
  8
0
  6
Continuous
 62
     7
100
AcDbLine
 10
-727.5000000000002
 20
122.3208913811634
 30
0.0
 11
-727.4999999999998
 21
112.7251681055626
 31
0.0
  0
LINE
  5
101
330
1F
100
AcDbEntity
  8
0
  6
Continuous
 62
     7
100
AcDbLine
 10
-741.4860000000006
 20
126.9547737650824
 30
0.0
 11
-741.4860000000006
 21
125.2168066616295
 31
0.0
  0
LINE
  5
102
330
1F
100
AcDbEntity
  8
0
  6
Continuous
 62
     7
100
AcDbLine
 10
-731.3295000000007
 20
128.2083014629864
 30
0.0
 11
-731.3295000000011
 21
137.5455108017492
 31
0.0
  0
LINE
  5
103
330
1F
100
AcDbEntity
  8
0
  6
Continuous
 62
     7
100
AcDbLine
 10
-737.6565000000007
 20
128.208301462986
 30
0.0
 11
-737.6565000000011
 21
137.5455108017488
 31
0.0
  0
LINE
  5
104
330
1F
100
AcDbEntity
  8
0
  6
Continuous
 62
     7
100
AcDbLine
 10
-731.3295624340706
 20
138.4687696902051
 30
0.0
 11
-731.3295624340706
 21
137.6540976104615
 31
0.0
  0
LINE
  5
105
330
1F
100
AcDbEntity
  8
0
  6
Continuous
 62
     7
100
AcDbLine
 10
-737.6565624340706
 20
138.468769690205
 30
0.0
 11
-737.6565624340706
 21
137.6540976104614
 31
0.0
  0
LINE
  5
106
330
1F
100
AcDbEntity
  8
0
  6
Continuous
 62
     7
100
AcDbLine
 10
-728.1660000000003
 20
123.2615936702458
 30
0.0
 11
-728.1660000000003
 21
123.4929597942721
 31
0.0
  0
LINE
  5
107
330
1F
100
AcDbEntity
  8
0
  6
Continuous
 62
     7
100
AcDbLine
 10
-727.5000000000005
 20
126.9547737650833
 30
0.0
 11
-727.5000000000005
 21
125.2168066616303
 31
0.0
  0
LINE
  5
108
330
1F
100
AcDbEntity
  8
0
  6
Continuous
 62
     7
100
AcDbLine
 10
-741.4860000000003
 20
122.3208913811625
 30
0.0
 11
-741.4859999999999
 21
112.7251681055618
 31
0.0
  0
LINE
  5
109
330
1F
100
AcDbEntity
  8
1
  6
DOT_CENTER
 62
     2
100
AcDbLine
 10
-751.7500000000009
 20
97.70000000000263
 30
0.0
 11
-751.7500000000009
 21
44.50000000000771
 31
0.0
  0
LINE
  5
10A
330
1F
100
AcDbEntity
  8
1
  6
Continuous
 62
     7
100
AcDbLine
 10
-761.2500000000009
 20
67.00000000000043
 30
0.0
 11
-761.2500000000009
 21
69.00000000000043
 31
0.0
  0
LINE
  5
10B
330
1F
100
AcDbEntity
  8
1
  6
Continuous
 62
     7
100
AcDbLine
 10
-759.5000000000009
 20
69.00000000000048
 30
0.0
 11
-759.5000000000009
 21
67.00000000000048
 31
0.0
  0
LINE
  5
10C
330
1F
100
AcDbEntity
  8
1
  6
DOT_CENTER
 62
     2
100
AcDbLine
 10
-785.750000000001
 20
97.70000000000294
 30
0.0
 11
-785.7500000000008
 21
44.50000000000006
 31
0.0
  0
LINE
  5
10D
102
{ACAD_REACTORS
330
204
102
}
330
1F
100
AcDbEntity
  8
0
  6
Continuous
 62
     7
100
AcDbLine
 10
-742.9999999999998
 20
46.50000000000112
 30
0.0
 11
-741.2499999999998
 21
46.50000000000112
 31
0.0
  0
LINE
  5
10E
330
1F
100
AcDbEntity
  8
0
  6
Continuous
 62
     2
100
AcDbLine
 10
-759.4999999999998
 20
48.7679491924312
 30
0.0
 11
-743.9999999999998
 21
48.76794919243211
 31
0.0
  0
LINE
  5
10F
330
1F
100
AcDbEntity
  8
0
  6
Continuous
 62
     2
100
AcDbLine
 10
-759.7679491924309
 20
47.7679491924312
 30
0.0
 11
-743.7320508075686
 21
47.76794919243211
 31
0.0
  0
LINE
  5
110
102
{ACAD_REACTORS
330
205
102
}
330
1F
100
AcDbEntity
  8
0
  6
Continuous
 62
     7
100
AcDbLine
 10
-762.2499999999998
 20
46.50000000000004
 30
0.0
 11
-760.4999999999998
 21
46.50000000000004
 31
0.0
  0
LINE
  5
111
102
{ACAD_REACTORS
330
205
102
}
330
1F
100
AcDbEntity
  8
0
  6
Continuous
 62
     7
100
AcDbLine
 10
-759.7679491924309
 20
47.7679491924312
 30
0.0
 11
-760.4999999999998
 21
46.50000000000004
 31
0.0
  0
LINE
  5
112
330
1F
100
AcDbEntity
  8
0
  6
Continuous
 62
     7
100
AcDbLine
 10
-760.4999999999998
 20
46.50000000000004
 30
0.0
 11
-742.9999999999998
 21
46.50000000000112
 31
0.0
  0
LINE
  5
113
102
{ACAD_REACTORS
330
204
102
}
330
1F
100
AcDbEntity
  8
0
  6
Continuous
 62
     7
100
AcDbLine
 10
-743.7320508075686
 20
47.76794919243211
 30
0.0
 11
-742.9999999999998
 21
46.50000000000112
 31
0.0
  0
LINE
  5
114
102
{ACAD_REACTORS
330
205
102
}
330
1F
100
AcDbEntity
  8
0
  6
Continuous
 62
     7
100
AcDbLine
 10
-762.2500000000009
 20
64.16794919243111
 30
0.0
 11
-762.2499999999998
 21
46.50000000000004
 31
0.0
  0
LINE
  5
115
102
{ACAD_REACTORS
330
204
102
}
330
1F
100
AcDbEntity
  8
0
  6
Continuous
 62
     7
100
AcDbLine
 10
-742.2500000000009
 20
65.90000000000109
 30
0.0
 11
-741.2500000000007
 21
64.1679491924323
 31
0.0
  0
LINE
  5
116
102
{ACAD_REACTORS
330
204
102
}
330
1F
100
AcDbEntity
  8
0
  6
Continuous
 62
     7
100
AcDbLine
 10
-741.2500000000011
 20
72.70000000000121
 30
0.0
 11
-741.2500000000009
 21
69.50000000000122
 31
0.0
  0
LINE
  5
117
102
{ACAD_REACTORS
330
204
102
}
330
1F
100
AcDbEntity
  8
0
  6
Continuous
 62
     7
100
AcDbLine
 10
-741.2500000000009
 20
69.50000000000122
 30
0.0
 11
-742.0500000000011
 21
69.50000000000111
 31
0.0
  0
LINE
  5
118
102
{ACAD_REACTORS
330
204
102
}
330
1F
100
AcDbEntity
  8
0
  6
Continuous
 62
     7
100
AcDbLine
 10
-742.2500000000009
 20
65.90000000000109
 30
0.0
 11
-742.2500000000009
 21
69.30000000000112
 31
0.0
  0
LINE
  5
119
102
{ACAD_REACTORS
330
204
102
}
330
1F
100
AcDbEntity
  8
0
  6
Continuous
 62
     7
100
AcDbLine
 10
-741.2500000000007
 20
64.1679491924323
 30
0.0
 11
-741.2499999999998
 21
46.50000000000112
 31
0.0
  0
LINE
  5
11A
102
{ACAD_REACTORS
330
204
102
}
330
1F
100
AcDbEntity
  8
0
  6
Continuous
 62
     7
100
AcDbLine
 10
-744.0000000000009
 20
70.500000000001
 30
0.0
 11
-743.9999999999998
 21
48.76794919243211
 31
0.0
  0
LINE
  5
11B
330
1F
100
AcDbEntity
  8
0
  6
Continuous
 62
     2
100
AcDbLine
 10
-756.5000000000014
 20
75.0080348444582
 30
0.0
 11
-747.0000000000014
 21
75.00803484445882
 31
0.0
  0
LINE
  5
11C
330
1F
100
AcDbEntity
  8
0
  6
Continuous
 62
     7
100
AcDbLine
 10
-756.5000000000014
 20
75.0080348444582
 30
0.0
 11
-756.5000000000023
 21
92.20000000000053
 31
0.0
  0
LINE
  5
11D
330
1F
100
AcDbEntity
  8
0
  6
Continuous
 62
     7
100
AcDbLine
 10
-747.2001325752394
 20
92.20000000000059
 30
0.0
 11
-747.0000000000023
 21
92.20000000000098
 31
0.0
  0
LINE
  5
11E
330
1F
100
AcDbEntity
  8
0
  6
Continuous
 62
     7
100
AcDbLine
 10
-747.0001325752394
 20
93.90000000000069
 30
0.0
 11
-747.0001325752394
 21
92.40000000000069
 31
0.0
  0
LINE
  5
11F
330
1F
100
AcDbEntity
  8
0
  6
Continuous
 62
     7
100
AcDbLine
 10
-747.0000000000014
 20
75.00803484445882
 30
0.0
 11
-747.0000000000023
 21
92.20000000000098
 31
0.0
  0
LINE
  5
120
330
1F
100
AcDbEntity
  8
0
  6
Continuous
 62
     7
100
AcDbLine
 10
-756.5001325752396
 20
93.90000000000052
 30
0.0
 11
-756.5001325752396
 21
92.40000000000052
 31
0.0
  0
LINE
  5
121
330
1F
100
AcDbEntity
  8
0
  6
Continuous
 62
     7
100
AcDbLine
 10
-747.0001325752394
 20
93.90000000000069
 30
0.0
 11
-756.5001325752396
 21
93.90000000000052
 31
0.0
  0
LINE
  5
122
330
1F
100
AcDbEntity
  8
0
  6
Continuous
 62
     2
100
AcDbLine
 10
-747.0001325752394
 20
92.40000000000069
 30
0.0
 11
-756.5001325752396
 21
92.40000000000052
 31
0.0
  0
LINE
  5
123
330
1F
100
AcDbEntity
  8
0
  6
Continuous
 62
     7
100
AcDbLine
 10
-756.5000000000023
 20
92.20000000000053
 30
0.0
 11
-747.2001325752394
 21
92.20000000000059
 31
0.0
  0
LINE
  5
124
330
1F
100
AcDbEntity
  8
0
  6
Continuous
 62
     2
100
AcDbLine
 10
-747.4421613454383
 20
95.44422729793959
 30
0.0
 11
-756.0581038050407
 21
95.44422729793948
 31
0.0
  0
LINE
  5
125
330
1F
100
AcDbEntity
  8
0
  6
Continuous
 62
     7
100
AcDbLine
 10
-747.8784560015386
 20
95.70000000000081
 30
0.0
 11
-755.6218091489407
 21
95.70000000000059
 31
0.0
  0
LINE
  5
126
102
{ACAD_REACTORS
330
204
102
}
330
1F
100
AcDbEntity
  8
0
  6
Continuous
 62
     7
100
AcDbLine
 10
-746.2588190451038
 20
74.04210901816973
 30
0.0
 11
-757.2411809548987
 21
74.0421090181691
 31
0.0
  0
LINE
  5
127
330
1F
100
AcDbEntity
  8
0
  6
Continuous
 62
     7
100
AcDbLine
 10
-759.5000000000009
 20
70.50000000000009
 30
0.0
 11
-744.0000000000009
 21
70.500000000001
 31
0.0
  0
LINE
  5
128
102
{ACAD_REACTORS
330
204
102
}
330
1F
100
AcDbEntity
  8
0
  6
Continuous
 62
     7
100
AcDbLine
 10
-761.2500000000009
 20
69.00000000000043
 30
0.0
 11
-761.2500000000009
 21
69.29999999999998
 31
0.0
  0
LINE
  5
129
102
{ACAD_REACTORS
330
205
102
}
330
1F
100
AcDbEntity
  8
0
  6
Continuous
 62
     7
100
AcDbLine
 10
-761.2500000000009
 20
65.9
 30
0.0
 11
-761.2500000000009
 21
67.00000000000043
 31
0.0
  0
LINE
  5
12A
102
{ACAD_REACTORS
330
204
102
}
330
1F
100
AcDbEntity
  8
0
  6
Continuous
 62
     7
100
AcDbLine
 10
-761.450000000001
 20
69.50000000000003
 30
0.0
 11
-762.2500000000009
 21
69.50000000000003
 31
0.0
  0
LINE
  5
12B
102
{ACAD_REACTORS
330
204
102
}
330
1F
100
AcDbEntity
  8
0
  6
Continuous
 62
     7
100
AcDbLine
 10
-762.2500000000011
 20
72.70000000000002
 30
0.0
 11
-762.2500000000009
 21
69.50000000000003
 31
0.0
  0
LINE
  5
12C
102
{ACAD_REACTORS
330
204
102
}
330
1F
100
AcDbEntity
  8
0
  6
Continuous
 62
     7
100
AcDbLine
 10
-759.5000000000009
 20
70.50000000000009
 30
0.0
 11
-759.5000000000009
 21
69.00000000000048
 31
0.0
  0
LINE
  5
12D
102
{ACAD_REACTORS
330
205
102
}
330
1F
100
AcDbEntity
  8
0
  6
Continuous
 62
     7
100
AcDbLine
 10
-759.5000000000009
 20
67.00000000000048
 30
0.0
 11
-759.4999999999998
 21
48.7679491924312
 31
0.0
  0
LINE
  5
12E
102
{ACAD_REACTORS
330
205
102
}
330
1F
100
AcDbEntity
  8
0
  6
Continuous
 62
     7
100
AcDbLine
 10
-761.2500000000009
 20
67.00000000000043
 30
0.0
 11
-759.5000000000009
 21
67.00000000000048
 31
0.0
  0
LINE
  5
12F
102
{ACAD_REACTORS
330
204
102
}
330
1F
100
AcDbEntity
  8
0
  6
Continuous
 62
     7
100
AcDbLine
 10
-761.2500000000009
 20
69.00000000000043
 30
0.0
 11
-759.5000000000009
 21
69.00000000000048
 31
0.0
  0
LINE
  5
130
102
{ACAD_REACTORS
330
205
102
}
330
1F
100
AcDbEntity
  8
0
  6
Continuous
 62
     7
100
AcDbLine
 10
-761.2500000000009
 20
65.9
 30
0.0
 11
-762.2500000000009
 21
64.16794919243111
 31
0.0
  0
LINE
  5
131
102
{ACAD_REACTORS
330
204
102
}
330
1F
100
AcDbEntity
  8
0
  6
Continuous
 62
     7
100
AcDbLine
 10
-751.7500000000011
 20
72.9435656138127
 30
0.0
 11
-744.0000000000009
 21
70.500000000001
 31
0.0
  0
LINE
  5
132
102
{ACAD_REACTORS
330
204
102
}
330
1F
100
AcDbEntity
  8
0
  6
Continuous
 62
     7
100
AcDbLine
 10
-757.2411809548987
 20
74.0421090181691
 30
0.0
 11
-762.2500000000011
 21
72.70000000000002
 31
0.0
  0
LINE
  5
133
102
{ACAD_REACTORS
330
204
102
}
330
1F
100
AcDbEntity
  8
0
  6
Continuous
 62
     7
100
AcDbLine
 10
-746.2588190451038
 20
74.04210901816973
 30
0.0
 11
-741.2500000000011
 21
72.70000000000121
 31
0.0
  0
LINE
  5
134
102
{ACAD_REACTORS
330
204
102
}
330
1F
100
AcDbEntity
  8
0
  6
Continuous
 62
     7
100
AcDbLine
 10
-751.7500000000011
 20
72.9435656138127
 30
0.0
 11
-759.5000000000009
 21
70.50000000000009
 31
0.0
  0
LINE
  5
135
330
1F
100
AcDbEntity
  8
0
  6
Continuous
 62
     7
100
AcDbLine
 10
-781.8784560015387
 20
95.70000000000095
 30
0.0
 11
-789.6218091489408
 21
95.70000000000073
 31
0.0
  0
LINE
  5
136
330
1F
100
AcDbEntity
  8
0
  6
Continuous
 62
     7
100
AcDbLine
 10
-790.5001325752397
 20
93.90000000000066
 30
0.0
 11
-790.5001325752397
 21
92.40000000000066
 31
0.0
  0
LINE
  5
137
330
1F
100
AcDbEntity
  8
0
  6
Continuous
 62
     7
100
AcDbLine
 10
-796.250000000001
 20
64.16794919243125
 30
0.0
 11
-796.2499999999999
 21
46.50000000000006
 31
0.0
  0
LINE
  5
138
330
1F
100
AcDbEntity
  8
0
  6
Continuous
 62
     7
100
AcDbLine
 10
-775.2499999999999
 20
46.50000000000125
 30
0.0
 11
-796.2499999999999
 21
46.50000000000006
 31
0.0
  0
LINE
  5
139
330
1F
100
AcDbEntity
  8
0
  6
Continuous
 62
     2
100
AcDbLine
 10
-781.4421613454386
 20
95.44422729793973
 30
0.0
 11
-790.0581038050408
 21
95.44422729793962
 31
0.0
  0
LINE
  5
13A
330
1F
100
AcDbEntity
  8
0
  6
Continuous
 62
     7
100
AcDbLine
 10
-781.0001325752395
 20
93.90000000000083
 30
0.0
 11
-790.5001325752397
 21
93.90000000000066
 31
0.0
  0
LINE
  5
13B
330
1F
100
AcDbEntity
  8
0
  6
Continuous
 62
     7
100
AcDbLine
 10
-781.0001325752395
 20
93.90000000000083
 30
0.0
 11
-781.0001325752395
 21
92.40000000000083
 31
0.0
  0
LINE
  5
13C
330
1F
100
AcDbEntity
  8
0
  6
Continuous
 62
     2
100
AcDbLine
 10
-781.0001325752395
 20
92.40000000000083
 30
0.0
 11
-790.5001325752397
 21
92.40000000000066
 31
0.0
  0
LINE
  5
13D
330
1F
100
AcDbEntity
  8
0
  6
Continuous
 62
     7
100
AcDbLine
 10
-781.0000000000015
 20
75.00803484445896
 30
0.0
 11
-781.0000000000024
 21
92.20000000000113
 31
0.0
  0
LINE
  5
13E
330
1F
100
AcDbEntity
  8
0
  6
Continuous
 62
     7
100
AcDbLine
 10
-790.5000000000015
 20
75.00803484445834
 30
0.0
 11
-790.5000000000024
 21
92.20000000000056
 31
0.0
  0
LINE
  5
13F
330
1F
100
AcDbEntity
  8
0
  6
Continuous
 62
     7
100
AcDbLine
 10
-781.2001325752395
 20
92.20000000000084
 30
0.0
 11
-781.0000000000024
 21
92.20000000000113
 31
0.0
  0
LINE
  5
140
330
1F
100
AcDbEntity
  8
0
  6
Continuous
 62
     7
100
AcDbLine
 10
-790.5000000000024
 20
92.20000000000056
 30
0.0
 11
-781.2001325752395
 21
92.20000000000084
 31
0.0
  0
LINE
  5
141
330
1F
100
AcDbEntity
  8
0
  6
Continuous
 62
     2
100
AcDbLine
 10
-790.5000000000015
 20
75.00803484445834
 30
0.0
 11
-781.0000000000015
 21
75.00803484445896
 31
0.0
  0
LINE
  5
142
330
1F
100
AcDbEntity
  8
0
  6
Continuous
 62
     7
100
AcDbLine
 10
-775.2500000000008
 20
64.16794919243245
 30
0.0
 11
-775.2499999999999
 21
46.50000000000125
 31
0.0
  0
LINE
  5
143
330
1F
100
AcDbEntity
  8
0
  6
Continuous
 62
     7
100
AcDbLine
 10
-780.2588190451039
 20
74.04210901816987
 30
0.0
 11
-775.2500000000013
 21
72.70000000000135
 31
0.0
  0
LINE
  5
144
330
1F
100
AcDbEntity
  8
0
  6
Continuous
 62
     2
100
AcDbLine
 10
-791.2411809548988
 20
74.04210901816924
 30
0.0
 11
-780.2588190451039
 21
74.04210901816987
 31
0.0
  0
LINE
  5
145
330
1F
100
AcDbEntity
  8
0
  6
Continuous
 62
     7
100
AcDbLine
 10
-775.2500000000013
 20
72.70000000000135
 30
0.0
 11
-775.2500000000013
 21
69.50000000000136
 31
0.0
  0
LINE
  5
146
330
1F
100
AcDbEntity
  8
0
  6
Continuous
 62
     7
100
AcDbLine
 10
-776.250000000001
 20
65.90000000000123
 30
0.0
 11
-776.2500000000013
 21
69.30000000000126
 31
0.0
  0
LINE
  5
147
330
1F
100
AcDbEntity
  8
0
  6
Continuous
 62
     7
100
AcDbLine
 10
-775.2500000000008
 20
64.16794919243245
 30
0.0
 11
-796.250000000001
 21
64.16794919243125
 31
0.0
  0
LINE
  5
148
330
1F
100
AcDbEntity
  8
0
  6
Continuous
 62
     7
100
AcDbLine
 10
-795.250000000001
 20
65.90000000000015
 30
0.0
 11
-795.2371535163867
 21
69.30000000000013
 31
0.0
  0
LINE
  5
149
330
1F
100
AcDbEntity
  8
0
  6
Continuous
 62
     7
100
AcDbLine
 10
-796.2500000000013
 20
72.70000000000016
 30
0.0
 11
-796.2500000000013
 21
69.50000000000017
 31
0.0
  0
LINE
  5
14A
330
1F
100
AcDbEntity
  8
0
  6
Continuous
 62
     7
100
AcDbLine
 10
-776.250000000001
 20
65.90000000000123
 30
0.0
 11
-795.250000000001
 21
65.90000000000015
 31
0.0
  0
LINE
  5
14B
330
1F
100
AcDbEntity
  8
0
  6
Continuous
 62
     2
100
AcDbLine
 10
-795.2500000000013
 20
69.30000000000013
 30
0.0
 11
-776.2500000000013
 21
69.30000000000126
 31
0.0
  0
LINE
  5
14C
330
1F
100
AcDbEntity
  8
0
  6
Continuous
 62
     7
100
AcDbLine
 10
-775.2500000000013
 20
72.70000000000135
 30
0.0
 11
-796.2500000000013
 21
72.70000000000016
 31
0.0
  0
LINE
  5
14D
330
1F
100
AcDbEntity
  8
0
  6
Continuous
 62
     7
100
AcDbLine
 10
-775.2500000000013
 20
69.50000000000136
 30
0.0
 11
-796.2500000000013
 21
69.50000000000017
 31
0.0
  0
LINE
  5
14E
330
1F
100
AcDbEntity
  8
0
  6
Continuous
 62
     7
100
AcDbLine
 10
-791.2411809548988
 20
74.04210901816924
 30
0.0
 11
-796.2500000000013
 21
72.70000000000016
 31
0.0
  0
LINE
  5
14F
330
1F
100
AcDbEntity
  8
0
  6
Continuous
 62
     7
100
AcDbLine
 10
-795.250000000001
 20
65.90000000000015
 30
0.0
 11
-796.250000000001
 21
64.16794919243125
 31
0.0
  0
LINE
  5
150
330
1F
100
AcDbEntity
  8
0
  6
Continuous
 62
     7
100
AcDbLine
 10
-776.250000000001
 20
65.90000000000123
 30
0.0
 11
-775.2500000000008
 21
64.16794919243245
 31
0.0
  0
ARC
  5
151
102
{ACAD_REACTORS
330
205
102
}
330
1F
100
AcDbEntity
  8
0
  6
Continuous
 62
     7
100
AcDbCircle
 10
-761.4999999999998
 20
48.76794919243114
 30
0.0
 40
1.999999999999935
100
AcDbArc
 50
330.0000000000011
 51
0.00000000000183
  0
ARC
  5
152
102
{ACAD_REACTORS
330
204
102
}
330
1F
100
AcDbEntity
  8
0
  6
Continuous
 62
     7
100
AcDbCircle
 10
-741.9999999999998
 20
48.76794919243222
 30
0.0
 40
2.0
100
AcDbArc
 50
180.000000000003
 51
210.0000000000032
  0
ARC
  5
153
330
1F
100
AcDbEntity
  8
0
  6
Continuous
 62
     7
100
AcDbCircle
 10
-747.8784560015386
 20
95.20000000000081
 30
0.0
 40
0.5000000000001072
100
AcDbArc
 50
29.23905716466992
 51
90.0
  0
ARC
  5
154
102
{ACAD_REACTORS
330
204
102
}
330
1F
100
AcDbEntity
  8
0
  6
Continuous
 62
     7
100
AcDbCircle
 10
-742.0500000000011
 20
69.30000000000112
 30
0.0
 40
0.1999999999999886
100
AcDbArc
 50
90.0
 51
180.0
  0
ARC
  5
155
330
1F
100
AcDbEntity
  8
0
  6
Continuous
 62
     7
100
AcDbCircle
 10
-757.5000000000014
 20
75.0080348444582
 30
0.0
 40
1.00000000000006
100
AcDbArc
 50
285.000000000007
 51
0.0
  0
ARC
  5
156
330
1F
100
AcDbEntity
  8
0
  6
Continuous
 62
     7
100
AcDbCircle
 10
-746.0000000000014
 20
75.00803484445882
 30
0.0
 40
1.0
100
AcDbArc
 50
180.0
 51
255.0000000000056
  0
ARC
  5
157
330
1F
100
AcDbEntity
  8
0
  6
Continuous
 62
     7
100
AcDbCircle
 10
-755.6218091489407
 20
95.20000000000059
 30
0.0
 40
0.5
100
AcDbArc
 50
90.0
 51
150.760942835306
  0
ARC
  5
158
330
1F
100
AcDbEntity
  8
0
  6
Continuous
 62
     7
100
AcDbCircle
 10
-753.0040412123401
 20
93.73463621236729
 30
0.0
 40
3.50000000000012
100
AcDbArc
 50
150.7609428353105
 51
177.2919498170754
  0
ARC
  5
159
330
1F
100
AcDbEntity
  8
0
  6
Continuous
 62
     7
100
AcDbCircle
 10
-756.3001325752396
 20
92.40000000000052
 30
0.0
 40
0.2000000000000455
100
AcDbArc
 50
180.0
 51
270.0
  0
ARC
  5
15A
330
1F
100
AcDbEntity
  8
0
  6
Continuous
 62
     7
100
AcDbCircle
 10
-750.4962239381389
 20
93.7346362123674
 30
0.0
 40
3.500000000000136
100
AcDbArc
 50
2.7080501829255
 51
29.23905716468956
  0
ARC
  5
15B
330
1F
100
AcDbEntity
  8
0
  6
Continuous
 62
     7
100
AcDbCircle
 10
-747.2001325752394
 20
92.40000000000069
 30
0.0
 40
0.2000000000001023
100
AcDbArc
 50
270.0
 51
0.0
  0
ARC
  5
15C
102
{ACAD_REACTORS
330
204
102
}
330
1F
100
AcDbEntity
  8
0
  6
Continuous
 62
     7
100
AcDbCircle
 10
-761.450000000001
 20
69.29999999999998
 30
0.0
 40
0.2000000000000455
100
AcDbArc
 50
0.0
 51
90.0
  0
ARC
  5
15D
330
1F
100
AcDbEntity
  8
0
  6
Continuous
 62
     7
100
AcDbCircle
 10
-781.8784560015387
 20
95.20000000000095
 30
0.0
 40
0.4999999999999089
100
AcDbArc
 50
29.23905716468264
 51
90.0
  0
ARC
  5
15E
330
1F
100
AcDbEntity
  8
0
  6
Continuous
 62
     7
100
AcDbCircle
 10
-787.0040412123404
 20
93.73463621236743
 30
0.0
 40
3.499999999999921
100
AcDbArc
 50
150.7609428353086
 51
177.2919498170753
  0
ARC
  5
15F
330
1F
100
AcDbEntity
  8
0
  6
Continuous
 62
     7
100
AcDbCircle
 10
-789.6218091489408
 20
95.20000000000073
 30
0.0
 40
0.5
100
AcDbArc
 50
90.0
 51
150.760942835306
  0
ARC
  5
160
330
1F
100
AcDbEntity
  8
0
  6
Continuous
 62
     7
100
AcDbCircle
 10
-781.2001325752395
 20
92.40000000000083
 30
0.0
 40
0.1999999999999886
100
AcDbArc
 50
270.0
 51
0.0
  0
ARC
  5
161
330
1F
100
AcDbEntity
  8
0
  6
Continuous
 62
     7
100
AcDbCircle
 10
-790.3001325752397
 20
92.40000000000066
 30
0.0
 40
0.2000000000000455
100
AcDbArc
 50
180.0
 51
270.0
  0
ARC
  5
162
330
1F
100
AcDbEntity
  8
0
  6
Continuous
 62
     7
100
AcDbCircle
 10
-791.5000000000015
 20
75.00803484445834
 30
0.0
 40
1.00000000000006
100
AcDbArc
 50
285.000000000007
 51
0.0
  0
ARC
  5
163
330
1F
100
AcDbEntity
  8
0
  6
Continuous
 62
     7
100
AcDbCircle
 10
-776.0500000000012
 20
69.30000000000126
 30
0.0
 40
0.1999999999999886
100
AcDbArc
 50
90.0
 51
180.0
  0
ARC
  5
164
330
1F
100
AcDbEntity
  8
0
  6
Continuous
 62
     7
100
AcDbCircle
 10
-795.4500000000011
 20
69.30000000000013
 30
0.0
 40
0.1999999999998181
100
AcDbArc
 50
0.0
 51
90.0
  0
ARC
  5
165
330
1F
100
AcDbEntity
  8
0
  6
Continuous
 62
     7
100
AcDbCircle
 10
-780.0000000000015
 20
75.00803484445896
 30
0.0
 40
1.0
100
AcDbArc
 50
180.0
 51
255.0000000000056
  0
ARC
  5
166
330
1F
100
AcDbEntity
  8
0
  6
Continuous
 62
     7
100
AcDbCircle
 10
-784.496223938139
 20
93.73463621236755
 30
0.0
 40
3.500000000000136
100
AcDbArc
 50
2.7080501829255
 51
29.23905716469138
  0
SPLINE
  5
167
330
1F
100
AcDbEntity
  8
0
  6
Continuous
 62
     7
100
AcDbSpline
210
0.0
220
0.0
230
1.0
 70
  1064
 71
     3
 72
    19
 73
    15
 74
    13
 42
0.000000001
 43
0.0000000001
 44
0.00000001
 40
0.0
 40
0.0
 40
0.0
 40
0.0
 40
1.173161354601338
 40
2.438690198365362
 40
3.770593848822838
 40
5.13707520620915
 40
6.503556563672072
 40
7.835460214165248
 40
9.100989056213349
 40
10.27415040462493
 40
11.3383361757863
 40
12.29082536497103
 40
13.14804853501444
 40
13.9490027093101
 40
13.9490027093101
 40
13.9490027093101
 40
13.9490027093101
 10
-729.5482022791621
 20
109.8632448255084
 30
0.0
 10
-729.8968731995053
 20
109.6845838203453
 30
0.0
 10
-730.6216672430756
 20
109.3131951556813
 30
0.0
 10
-731.8337262406684
 20
108.9570477534071
 30
0.0
 10
-733.1368877174536
 20
108.727723985576
 30
0.0
 10
-734.4931064919155
 20
108.6523445006553
 30
0.0
 10
-735.8486917630769
 20
108.7283942028971
 30
0.0
 10
-737.1536752850135
 20
108.954499724309
 30
0.0
 10
-738.3595614742337
 20
109.3219507084055
 30
0.0
 10
-739.421159425189
 20
109.8177280752167
 30
0.0
 10
-740.3029052239592
 20
110.4252450502159
 30
0.0
 10
-740.962651599738
 20
111.1263836088413
 30
0.0
 10
-741.4014085372492
 20
111.9022468592509
 30
0.0
 10
-741.4584480473823
 20
112.4571376219945
 30
0.0
 10
-741.4859999999999
 20
112.7251681055618
 30
0.0
 11
-729.5482022791621
 21
109.8632448255084
 31
0.0
 11
-730.6078975447666
 21
109.3599025041676
 31
0.0
 11
-731.8168947574707
 21
108.9858851395263
 31
0.0
 11
-733.1287334428489
 21
108.7555666701531
 31
0.0
 11
-734.4929999999997
 21
108.6777973884386
 31
0.0
 11
-735.8572665571505
 21
108.7555666701529
 31
0.0
 11
-737.1691052425286
 21
108.985885139526
 31
0.0
 11
-738.3781024552327
 21
109.3599025041673
 31
0.0
 11
-739.4377977208371
 21
109.8632448255079
 31
0.0
 11
-740.3074667230475
 21
110.4765695197853
 31
0.0
 11
-740.9536895708511
 21
111.176306387479
 31
0.0
 11
-741.3516311405502
 21
111.9355652864909
 31
0.0
 11
-741.4859999999999
 21
112.7251681055618
 31
0.0
  0
SPLINE
  5
168
330
1F
100
AcDbEntity
  8
0
  6
Continuous
 62
     7
100
AcDbSpline
210
0.0
220
0.0
230
1.0
 70
  1064
 71
     3
 72
    11
 73
     7
 74
     5
 42
0.000000001
 43
0.0000000001
 44
0.00000001
 40
0.0
 40
0.0
 40
0.0
 40
0.0
 40
0.800954179798979
 40
1.658177349380319
 40
2.610666534771906
 40
3.674852306124522
 40
3.674852306124522
 40
3.674852306124522
 40
3.674852306124522
 10
-727.4999999999998
 20
112.7251681055626
 30
0.0
 10
-727.5274998213389
 20
112.4570418941634
 30
0.0
 10
-727.5844314081919
 20
111.9019529520032
 30
0.0
 10
-728.0240737708004
 20
111.1277155363321
 30
0.0
 10
-728.6798896648071
 20
110.419359666531
 30
0.0
 10
-729.2482711820206
 20
110.0553370818952
 30
0.0
 10
-729.5482022791621
 20
109.8632448255084
 30
0.0
 11
-727.4999999999998
 21
112.7251681055626
 31
0.0
 11
-727.6343688594492
 21
111.9355652864916
 31
0.0
 11
-728.0323104291483
 21
111.1763063874797
 31
0.0
 11
-728.6785332769518
 21
110.4765695197858
 31
0.0
 11
-729.5482022791621
 21
109.8632448255084
 31
0.0
  0
SPLINE
  5
169
330
1F
100
AcDbEntity
  8
0
  6
Continuous
 62
     7
100
AcDbSpline
210
0.0
220
0.0
230
1.0
 70
  1064
 71
     3
 72
     9
 73
     5
 74
     3
 42
0.000000001
 43
0.0000000001
 44
0.00000001
 40
0.0
 40
0.0
 40
0.0
 40
0.0
 40
0.745451440497171
 40
1.536857513172015
 40
1.536857513172015
 40
1.536857513172015
 40
1.536857513172015
 10
-741.4860000000003
 20
122.3208913811625
 30
0.0
 10
-741.4640322874686
 20
122.5716395926073
 30
0.0
 10
-741.4187426059539
 20
123.0885938145082
 30
0.0
 10
-741.1576353608582
 20
123.5376217242436
 30
0.0
 10
-741.023177955358
 20
123.7688490213961
 30
0.0
 11
-741.4860000000003
 21
122.3208913811625
 31
0.0
 11
-741.3693208758737
 21
123.057154808427
 31
0.0
 11
-741.023177955358
 21
123.7688490213961
 31
0.0
  0
SPLINE
  5
16A
330
1F
100
AcDbEntity
  8
0
  6
Continuous
 62
     7
100
AcDbSpline
210
0.0
220
0.0
230
1.0
 70
  1064
 71
     3
 72
    15
 73
    11
 74
     9
 42
0.000000001
 43
0.0000000001
 44
0.00000001
 40
0.0
 40
0.0
 40
0.0
 40
0.0
 40
0.0475593885072948
 40
0.0971455975418479
 40
0.1447503747905322
 40
0.2011195872765016
 40
0.2511137752898213
 40
0.3100440949839479
 40
0.3489657312902775
 40
0.39337363653341
 40
0.39337363653341
 40
0.39337363653341
 40
0.39337363653341
 10
-738.4710764926206
 20
121.5545967417976
 30
0.0
 10
-738.4714615513957
 20
121.5704532412881
 30
0.0
 10
-738.4722480936555
 20
121.6028419901282
 30
0.0
 10
-738.4781865336812
 20
121.6507980101547
 30
0.0
 10
-738.4876454275973
 20
121.7011255072896
 30
0.0
 10
-738.500567563483
 20
121.7508437704169
 30
0.0
 10
-738.5176755735226
 20
121.8032458896876
 30
0.0
 10
-738.5357514591641
 20
121.8491260357005
 30
0.0
 10
-738.555154293538
 20
121.892411703174
 30
0.0
 10
-738.5677850012644
 20
121.917155228332
 30
0.0
 10
-738.5745161534554
 20
121.9303415224541
 30
0.0
 11
-738.4710764926206
 21
121.5545967417976
 31
0.0
 11
-738.4729983745535
 21
121.6021172835904
 31
0.0
 11
-738.4787882529058
 21
121.651364309558
 31
0.0
 11
-738.4875922572497
 21
121.6981479010523
 31
0.0
 11
-738.5016873253694
 21
121.752726443464
 31
0.0
 11
-738.5171811610164
 21
121.8002591684836
 31
0.0
 11
-738.5386991687874
 21
121.855120429313
 31
0.0
 11
-738.5546820743418
 21
121.8906090258477
 31
0.0
 11
-738.5745161534554
 21
121.9303415224541
 31
0.0
  0
SPLINE
  5
16B
330
1F
100
AcDbEntity
  8
0
  6
Continuous
 62
     7
100
AcDbSpline
210
0.0
220
0.0
230
1.0
 70
  1064
 71
     3
 72
    11
 73
     7
 74
     5
 42
0.000000001
 43
0.0000000001
 44
0.00000001
 40
0.0
 40
0.0
 40
0.0
 40
0.0
 40
1.064185771352433
 40
2.016674956743992
 40
2.873898126325244
 40
3.674852306124163
 40
3.674852306124163
 40
3.674852306124163
 40
3.674852306124163
 10
-739.437797720838
 20
122.3548833815758
 30
0.0
 10
-739.7377288179794
 20
122.5469756379626
 30
0.0
 10
-740.3061103351924
 20
122.9109982225984
 30
0.0
 10
-740.9619262291999
 20
123.6193540923992
 30
0.0
 10
-741.401568591808
 20
124.3935915080702
 30
0.0
 10
-741.4585001786614
 20
124.9486804502303
 30
0.0
 10
-741.4860000000006
 20
125.2168066616295
 30
0.0
 11
-739.437797720838
 21
122.3548833815758
 31
0.0
 11
-740.3074667230482
 21
122.9682080758531
 31
0.0
 11
-740.9536895708518
 21
123.6679449435468
 31
0.0
 11
-741.3516311405509
 21
124.4272038425586
 31
0.0
 11
-741.4860000000006
 21
125.2168066616295
 31
0.0
  0
SPLINE
  5
16C
330
1F
100
AcDbEntity
  8
0
  6
Continuous
 62
     7
100
AcDbSpline
210
0.0
220
0.0
230
1.0
 70
  1064
 71
     3
 72
    11
 73
     7
 74
     5
 42
0.000000001
 43
0.0000000001
 44
0.00000001
 40
0.0
 40
0.0
 40
0.0
 40
0.0
 40
1.064185771352482
 40
2.016674956744052
 40
2.873898126325344
 40
3.674852306124244
 40
3.674852306124244
 40
3.674852306124244
 40
3.674852306124244
 10
-739.437797720838
 20
124.0928504850286
 30
0.0
 10
-739.7377288179792
 20
124.2849427414154
 30
0.0
 10
-740.3061103351926
 20
124.6489653260512
 30
0.0
 10
-740.9619262291997
 20
125.3573211958521
 30
0.0
 10
-741.4015685918081
 20
126.131558611523
 30
0.0
 10
-741.4585001786617
 20
126.6866475536832
 30
0.0
 10
-741.4860000000006
 20
126.9547737650824
 30
0.0
 11
-739.437797720838
 21
124.0928504850286
 31
0.0
 11
-740.3074667230482
 21
124.706175179306
 31
0.0
 11
-740.9536895708518
 21
125.4059120469997
 31
0.0
 11
-741.351631140551
 21
126.1651709460115
 31
0.0
 11
-741.4860000000006
 21
126.9547737650824
 31
0.0
  0
SPLINE
  5
16D
330
1F
100
AcDbEntity
  8
0
  6
Continuous
 62
     7
100
AcDbSpline
210
0.0
220
0.0
230
1.0
 70
  1064
 71
     3
 72
    19
 73
    15
 74
    13
 42
0.000000001
 43
0.0000000001
 44
0.00000001
 40
0.0
 40
0.0
 40
0.0
 40
0.0
 40
0.8009541742956433
 40
1.658177344339128
 40
2.610666533523953
 40
3.674852304685292
 40
4.848013653096812
 40
6.113542495145052
 40
7.44544614563848
 40
8.81192750310141
 40
10.17840886048772
 40
11.51031251094528
 40
12.77584135470928
 40
13.94900270931037
 40
13.94900270931037
 40
13.94900270931037
 40
13.94900270931037
 10
-727.5000000000005
 20
126.9547737650833
 30
0.0
 10
-727.527551952618
 20
126.686743281516
 30
0.0
 10
-727.5845914627508
 20
126.1318525187723
 30
0.0
 10
-728.0233484002624
 20
125.3559892683627
 30
0.0
 10
-728.6830947760405
 20
124.6548507097372
 30
0.0
 10
-729.5648405748112
 20
124.0473337347379
 30
0.0
 10
-730.6264385257663
 20
123.5515563679265
 30
0.0
 10
-731.8323247149867
 20
123.18410538383
 30
0.0
 10
-733.137308236923
 20
122.9579998624179
 30
0.0
 10
-734.4928935080849
 20
122.881950160176
 30
0.0
 10
-735.8491122825465
 20
122.9573296450966
 30
0.0
 10
-737.1522737593319
 20
123.1866534129275
 30
0.0
 10
-738.3643327569249
 20
123.5428008152015
 30
0.0
 10
-739.0891268004946
 20
123.9141894798656
 30
0.0
 10
-739.437797720838
 20
124.0928504850286
 30
0.0
 11
-727.5000000000005
 21
126.9547737650833
 31
0.0
 11
-727.6343688594499
 21
126.1651709460123
 31
0.0
 11
-728.032310429149
 21
125.4059120470004
 31
0.0
 11
-728.6785332769526
 21
124.7061751793065
 31
0.0
 11
-729.5482022791629
 21
124.0928504850291
 31
0.0
 11
-730.6078975447672
 21
123.5895081636883
 31
0.0
 11
-731.8168947574713
 21
123.215490799047
 31
0.0
 11
-733.1287334428497
 21
122.9851723296737
 31
0.0
 11
-734.4930000000005
 21
122.9074030479592
 31
0.0
 11
-735.8572665571513
 21
122.9851723296736
 31
0.0
 11
-737.1691052425297
 21
123.2154907990466
 31
0.0
 11
-738.3781024552337
 21
123.5895081636879
 31
0.0
 11
-739.437797720838
 21
124.0928504850286
 31
0.0
  0
SPLINE
  5
16E
330
1F
100
AcDbEntity
  8
0
  6
Continuous
 62
     7
100
AcDbSpline
210
0.0
220
0.0
230
1.0
 70
  1064
 71
     3
 72
    19
 73
    15
 74
    13
 42
0.000000001
 43
0.0000000001
 44
0.00000001
 40
0.0
 40
0.0
 40
0.0
 40
0.0
 40
1.173161354601133
 40
2.438690198365161
 40
3.770593848822637
 40
5.137075206208949
 40
6.503556563671643
 40
7.835460214165147
 40
9.100989056213361
 40
10.27415040462486
 40
11.33833617578614
 40
12.29082536497086
 40
13.14804853501431
 40
13.94900270930987
 40
13.94900270930987
 40
13.94900270930987
 40
13.94900270930987
 10
-729.5482022791628
 20
119.4589681011092
 30
0.0
 10
-729.8968731995062
 20
119.2803070959461
 30
0.0
 10
-730.6216672430759
 20
118.908918431282
 30
0.0
 10
-731.8337262406687
 20
118.5527710290079
 30
0.0
 10
-733.1368877174542
 20
118.3234472611768
 30
0.0
 10
-734.4931064919157
 20
118.2480677762561
 30
0.0
 10
-735.8486917630776
 20
118.3241174784979
 30
0.0
 10
-737.1536752850138
 20
118.5502229999097
 30
0.0
 10
-738.3595614742342
 20
118.9176739840062
 30
0.0
 10
-739.4211594251894
 20
119.4134513508175
 30
0.0
 10
-740.3029052239597
 20
120.0209683258167
 30
0.0
 10
-740.9626515997386
 20
120.7221068844421
 30
0.0
 10
-741.4014085372495
 20
121.4979701348516
 30
0.0
 10
-741.4584480473827
 20
122.0528608975952
 30
0.0
 10
-741.4860000000003
 20
122.3208913811625
 30
0.0
 11
-729.5482022791628
 21
119.4589681011092
 31
0.0
 11
-730.6078975447671
 21
118.9556257797684
 31
0.0
 11
-731.8168947574711
 21
118.5816084151271
 31
0.0
 11
-733.1287334428494
 21
118.3512899457539
 31
0.0
 11
-734.4930000000002
 21
118.2735206640394
 31
0.0
 11
-735.8572665571508
 21
118.3512899457537
 31
0.0
 11
-737.1691052425292
 21
118.5816084151267
 31
0.0
 11
-738.3781024552334
 21
118.955625779768
 31
0.0
 11
-739.4377977208377
 21
119.4589681011088
 31
0.0
 11
-740.3074667230479
 21
120.0722927953861
 31
0.0
 11
-740.9536895708516
 21
120.7720296630798
 31
0.0
 11
-741.3516311405508
 21
121.5312885620916
 31
0.0
 11
-741.4860000000003
 21
122.3208913811625
 31
0.0
  0
SPLINE
  5
16F
330
1F
100
AcDbEntity
  8
0
  6
Continuous
 62
     7
100
AcDbSpline
210
0.0
220
0.0
230
1.0
 70
  1064
 71
     3
 72
    33
 73
    29
 74
    27
 42
0.000000001
 43
0.0000000001
 44
0.00000001
 40
0.0
 40
0.0
 40
0.0
 40
0.0
 40
0.1571709065853487
 40
0.3017882240195382
 40
0.4645958538214483
 40
0.6563411845520188
 40
0.8640453198679942
 40
1.0787295377499
 40
1.344783523639482
 40
1.579009368427705
 40
1.733492124097479
 40
1.89011665094299
 40
2.054924599905342
 40
2.221489106907458
 40
2.384742877472271
 40
2.567880382725613
 40
2.744880659387801
 40
2.922286612031357
 40
3.109366329346808
 40
3.27669266835159
 40
3.441296536523439
 40
3.623083898376001
 40
3.948187329071988
 40
4.265445515646624
 40
4.741077891439557
 40
5.187481933253327
 40
5.526705772634847
 40
5.843270267641834
 40
5.843270267641834
 40
5.843270267641834
 40
5.843270267641834
 10
-737.1260252409065
 20
139.9671872091488
 30
0.0
 10
-737.0934742977745
 20
140.0082847626113
 30
0.0
 10
-737.0309723135073
 20
140.0871973046935
 30
0.0
 10
-736.921981678317
 20
140.1975687205095
 30
0.0
 10
-736.7968562911617
 20
140.3074313252003
 30
0.0
 10
-736.6461189762881
 20
140.4192032974139
 30
0.0
 10
-736.4722626001156
 20
140.5276711231058
 30
0.0
 10
-736.2687332474441
 20
140.6341081595536
 30
0.0
 10
-736.04941540856
 20
140.7280486725539
 30
0.0
 10
-735.8430398500311
 20
140.7995195556073
 30
0.0
 10
-735.6684332918172
 20
140.850226428725
 30
0.0
 10
-735.5144541025859
 20
140.8885534517121
 30
0.0
 10
-735.3551788876143
 20
140.9217877627007
 30
0.0
 10
-735.1925805019148
 20
140.949328920782
 30
0.0
 10
-735.0230306999583
 20
140.9717099135778
 30
0.0
 10
-734.8492882496428
 20
140.9880553675927
 30
0.0
 10
-734.670343327127
 20
140.998022683496
 30
0.0
 10
-734.4898381730475
 20
141.0013650430621
 30
0.0
 10
-734.312554752827
 20
140.9979035270943
 30
0.0
 10
-734.1397946921732
 20
140.9881032246939
 30
0.0
 10
-733.9692399315431
 20
140.9723955434088
 30
0.0
 10
-733.7472288759188
 20
140.9435493689463
 30
0.0
 10
-733.4769237153748
 20
140.8928966481639
 30
0.0
 10
-733.1166786972577
 20
140.7964280275395
 30
0.0
 10
-732.7291912314901
 20
140.64895616037
 30
0.0
 10
-732.3618139909621
 20
140.4419523281956
 30
0.0
 10
-732.0690714649731
 20
140.2159888308554
 30
0.0
 10
-731.9281336344867
 20
140.0481884282244
 30
0.0
 10
-731.8600996272347
 20
139.9671872091489
 30
0.0
 11
-737.1260252409065
 21
139.9671872091488
 31
0.0
 11
-737.0261224785761
 21
140.0885220046758
 31
0.0
 11
-736.9251554346733
 21
140.1920586019112
 31
0.0
 11
-736.8028072004525
 21
140.2994701101215
 31
0.0
 11
-736.6490168856242
 21
140.4139900223007
 31
0.0
 11
-736.4729572628622
 21
140.5241899163052
 31
0.0
 11
-736.2828543380034
 21
140.6239405604728
 31
0.0
 11
-736.0384581406672
 21
140.7290843746149
 31
0.0
 11
-735.8172009618362
 21
140.805941429125
 31
0.0
 11
-735.6688613005435
 21
140.8490722363903
 31
0.0
 11
-735.51688486575
 21
140.8869457828627
 31
0.0
 11
-735.3555600548805
 21
140.9206498667132
 31
0.0
 11
-735.1913403171329
 21
140.9484996881097
 31
0.0
 11
-735.0294937020091
 21
140.9698881571336
 31
0.0
 11
-734.8471635440637
 21
140.9870654421048
 31
0.0
 11
-734.670437902643
 21
140.9969216786991
 31
0.0
 11
-734.4930624340707
 21
141.0002102917515
 31
0.0
 11
-734.3060184698566
 21
140.9965529908536
 31
0.0
 11
-734.1389613240774
 21
140.9870654421048
 31
0.0
 11
-733.9750527183628
 21
140.9719524607098
 31
0.0
 11
-733.7947845510082
 21
140.9484996881097
 31
0.0
 11
-733.475297780134
 21
140.888329569585
 31
0.0
 11
-733.168923906305
 21
140.8059414291251
 31
0.0
 11
-732.7253005845503
 21
140.6344057074717
 31
0.0
 11
-732.337107982517
 21
140.4139900223008
 31
0.0
 11
-732.0719472371504
 21
140.20241830799
 31
0.0
 11
-731.8600996272347
 21
139.9671872091489
 31
0.0
  0
SPLINE
  5
170
330
1F
100
AcDbEntity
  8
0
  6
Continuous
 62
     7
100
AcDbSpline
210
0.0
220
0.0
230
1.0
 70
  1064
 71
     3
 72
     9
 73
     5
 74
     3
 42
0.000000001
 43
0.0000000001
 44
0.00000001
 40
0.0
 40
0.0
 40
0.0
 40
0.0
 40
0.0269241689681144
 40
0.0538598892485709
 40
0.0538598892485709
 40
0.0538598892485709
 40
0.0538598892485709
 10
-731.3295000000011
 20
137.5455108017492
 30
0.0
 10
-731.3295570544066
 20
137.5544862473682
 30
0.0
 10
-731.3296712076901
 20
137.5724409889727
 30
0.0
 10
-731.330468946083
 20
137.5903783640299
 30
0.0
 10
-731.3308679108203
 20
137.5993489747525
 30
0.0
 11
-731.3295000000011
 21
137.5455108017492
 31
0.0
 11
-731.3298419961919
 21
137.5724327987046
 31
0.0
 11
-731.3308679108203
 21
137.5993489747525
 31
0.0
  0
SPLINE
  5
171
330
1F
100
AcDbEntity
  8
0
  6
Continuous
 62
     2
100
AcDbSpline
210
0.0
220
0.0
230
1.0
 70
  1067
 71
     3
 72
    33
 73
    29
 74
    27
 42
0.000000001
 43
0.0000000001
 44
0.00000001
 40
0.0
 40
0.0
 40
0.0
 40
0.0
 40
0.4676776125891864
 40
0.8755380348921769
 40
1.242901143422372
 40
1.605849700430888
 40
2.002607365451031
 40
2.456618378284522
 40
2.973050314215524
 40
3.543371344542816
 40
4.150333621034592
 40
4.771807907616796
 40
5.383905699537578
 40
5.963865568265041
 40
6.493086870672709
 40
6.960764847119957
 40
7.368624967665534
 40
7.735988212783686
 40
8.098936859637167
 40
8.495694250579968
 40
8.949705615339811
 40
9.466137214475337
 40
10.03645850569691
 40
10.64342063574134
 40
11.26489493736769
 40
11.87699284874905
 40
12.45695247984639
 40
12.98617409771737
 40
12.98617409771737
 40
12.98617409771737
 40
12.98617409771737
 10
-736.3776245036771
 20
138.4277860496601
 30
0.0
 10
-736.5059208254168
 20
138.5177492184075
 30
0.0
 10
-736.7461040362874
 20
138.6861690274607
 30
0.0
 10
-736.9951327383858
 20
139.028439650445
 30
0.0
 10
-737.0979086181612
 20
139.4042364962027
 30
0.0
 10
-737.0313747427726
 20
139.7858127408035
 30
0.0
 10
-736.8100825697895
 20
140.1340303617142
 30
0.0
 10
-736.4600066402033
 20
140.433410405236
 30
0.0
 10
-736.0024384895136
 20
140.6738890108222
 30
0.0
 10
-735.4617488055206
 20
140.8447881284976
 30
0.0
 10
-734.8672417155054
 20
140.9373444791113
 30
0.0
 10
-734.2518511393888
 20
140.9465095316464
 30
0.0
 10
-733.6499280659677
 20
140.8717722179889
 30
0.0
 10
-733.0949147540697
 20
140.7172401276391
 30
0.0
 10
-732.6170516646057
 20
140.4909838846154
 30
0.0
 10
-732.2418417849777
 20
140.2034839050386
 30
0.0
 10
-731.9905842078479
 20
139.8650081915678
 30
0.0
 10
-731.8883180685909
 20
139.488340728697
 30
0.0
 10
-731.9547210644714
 20
139.1069912492645
 30
0.0
 10
-732.1760510002516
 20
138.7587051649537
 30
0.0
 10
-732.5261164993857
 20
138.4593466622759
 30
0.0
 10
-732.9836832589415
 20
138.2188673016971
 30
0.0
 10
-733.5243920849296
 20
138.0479380953879
 30
0.0
 10
-734.1188183141796
 20
137.9555173822635
 30
0.0
 10
-734.7345200844679
 20
137.9458243208491
 30
0.0
 10
-735.3353137067828
 20
138.0224824799342
 30
0.0
 10
-735.8942012705763
 20
138.1704223228643
 30
0.0
 10
-736.2214736378726
 20
138.3446548189728
 30
0.0
 10
-736.3776245036771
 20
138.4277860496601
 30
0.0
 11
-736.3776245036771
 21
138.4277860496601
 31
0.0
 11
-736.7440357783869
 21
138.7184149118137
 31
0.0
 11
-736.9796293851055
 21
139.0513500040717
 31
0.0
 11
-737.0707119626642
 21
139.4072427086541
 31
0.0
 11
-737.011991744432
 21
139.7654096961579
 31
0.0
 11
-736.8068797039848
 21
140.1050355135215
 31
0.0
 11
-736.4672977551436
 21
140.4063826558141
 31
0.0
 11
-736.0129797932892
 21
140.6519374041356
 31
0.0
 11
-735.4703302459122
 21
140.8274297025445
 31
0.0
 11
-734.8708851325863
 21
140.9226597482389
 31
0.0
 11
-734.2494824583418
 21
140.9320940321101
 31
0.0
 11
-733.6422358449106
 21
140.8551833193554
 31
0.0
 11
-733.0844359077539
 21
140.6963983079494
 31
0.0
 11
-732.6085006752395
 21
140.4649661541631
 31
0.0
 11
-732.2420887185554
 21
140.1743375800263
 31
0.0
 11
-732.0064958930856
 21
139.841402302581
 31
0.0
 11
-731.9154124804072
 21
139.485509669594
 31
0.0
 11
-731.9741335390956
 21
139.1273427282474
 31
0.0
 11
-732.179244782594
 21
138.7877167496565
 31
0.0
 11
-732.5188274385606
 21
138.4863698742915
 31
0.0
 11
-732.9731448242084
 21
138.240814768855
 31
0.0
 11
-733.5157947833861
 21
138.0653228969943
 31
0.0
 11
-734.1152396732496
 21
137.970092380108
 31
0.0
 11
-734.7366423696315
 21
137.9606585846884
 31
0.0
 11
-735.3438891635367
 21
138.0375688201187
 31
0.0
 11
-735.9016887280961
 21
138.1963542699814
 31
0.0
 11
-736.3776245036771
 21
138.4277860496601
 31
0.0
  0
SPLINE
  5
172
330
1F
100
AcDbEntity
  8
0
  6
Continuous
 62
     2
100
AcDbSpline
210
0.0
220
0.0
230
1.0
 70
  1064
 71
     3
 72
    11
 73
     7
 74
     5
 42
0.000000001
 43
0.0000000001
 44
0.00000001
 40
0.0
 40
0.0
 40
0.0
 40
0.0
 40
0.4530556100361432
 40
0.8602413530413212
 40
1.228991847954509
 40
1.575326792612047
 40
1.575326792612047
 40
1.575326792612047
 40
1.575326792612047
 10
-736.8051537620074
 20
136.4044314632446
 30
0.0
 10
-736.9303294381409
 20
136.4899718988941
 30
0.0
 10
-737.1680073006585
 20
136.6523921924986
 30
0.0
 10
-737.440269919533
 20
136.9626733298055
 30
0.0
 10
-737.6218639226081
 20
137.2988678031759
 30
0.0
 10
-737.6452405278785
 20
137.5381883078318
 30
0.0
 10
-737.6565624340706
 20
137.6540976104614
 30
0.0
 11
-736.8051537620074
 21
136.4044314632446
 31
0.0
 11
-737.1676149751238
 21
136.6762425265363
 31
0.0
 11
-737.4360229473912
 21
136.9824408147235
 31
0.0
 11
-737.6009384315098
 21
137.3122586630978
 31
0.0
 11
-737.6565624340706
 21
137.6540976104614
 31
0.0
  0
SPLINE
  5
173
330
1F
100
AcDbEntity
  8
0
  6
Continuous
 62
     2
100
AcDbSpline
210
0.0
220
0.0
230
1.0
 70
  1064
 71
     3
 72
    13
 73
     9
 74
     7
 42
0.000000001
 43
0.0000000001
 44
0.00000001
 40
0.0
 40
0.0
 40
0.0
 40
0.0
 40
0.4222351558054237
 40
0.800519742479018
 40
1.142574813195283
 40
1.464820151812239
 40
1.789724182243026
 40
2.138879467834511
 40
2.138879467834511
 40
2.138879467834511
 40
2.138879467834511
 10
-736.5899935754233
 20
138.1740884119372
 30
0.0
 10
-736.7064254061058
 20
138.2539699710799
 30
0.0
 10
-736.9271696388996
 20
138.4054182079524
 30
0.0
 10
-737.1797251416443
 20
138.6964654684858
 30
0.0
 10
-737.3357720407823
 20
139.0125394221779
 30
0.0
 10
-737.3795342245926
 20
139.3450760742643
 30
0.0
 10
-737.3122341610273
 20
139.678519318868
 30
0.0
 10
-737.1895660002504
 20
139.8686840043644
 30
0.0
 10
-737.1260252409065
 20
139.9671872091488
 30
0.0
 11
-736.5899935754233
 21
138.1740884119372
 31
0.0
 11
-736.9271045796005
 21
138.4283298287958
 31
0.0
 11
-737.1735558003417
 21
138.7153159360282
 31
0.0
 11
-737.3201673144367
 21
139.0243575785092
 31
0.0
 11
-737.361478796371
 21
139.3439439068117
 31
0.0
 11
-737.2959510479775
 21
139.6621714120279
 31
0.0
 11
-737.1260252409065
 21
139.9671872091488
 31
0.0
  0
SPLINE
  5
174
330
1F
100
AcDbEntity
  8
0
  6
Continuous
 62
     7
100
AcDbSpline
210
0.0
220
0.0
230
1.0
 70
  1064
 71
     3
 72
    15
 73
    11
 74
     9
 42
0.000000001
 43
0.0000000001
 44
0.00000001
 40
0.0
 40
0.0
 40
0.0
 40
0.0
 40
0.186071930297646
 40
0.3724270266723007
 40
0.5614253225953256
 40
0.7510697130910704
 40
0.9580882206224908
 40
1.141686918416695
 40
1.359726373169583
 40
1.552867869946119
 40
1.552867869946119
 40
1.552867869946119
 40
1.552867869946119
 10
-737.6547793995508
 20
138.5302345713523
 30
0.0
 10
-737.6499102736066
 20
138.5920935032205
 30
0.0
 10
-737.6401645972683
 20
138.7159055031141
 30
0.0
 10
-737.6086787866914
 20
138.9006221455554
 30
0.0
 10
-737.5647363829845
 20
139.0838895376405
 30
0.0
 10
-737.5053692004888
 20
139.270045992073
 30
0.0
 10
-737.4330086496913
 20
139.4496526656717
 30
0.0
 10
-737.3433095479825
 20
139.6317574160134
 30
0.0
 10
-737.2434094894948
 20
139.8033833035033
 30
0.0
 10
-737.1635412589844
 20
139.9148354722257
 30
0.0
 10
-737.1260252409065
 20
139.9671872091488
 30
0.0
 11
-737.6547793995508
 21
138.5302345713523
 31
0.0
 11
-737.6373910640665
 21
138.715492254642
 31
0.0
 11
-737.6068200070192
 21
138.8993227001766
 31
0.0
 11
-737.5625608978038
 21
139.0830656929402
 31
0.0
 11
-737.5050145782528
 21
139.263768255774
 31
0.0
 11
-737.4276010039664
 21
139.4557677382715
 31
0.0
 11
-737.3466571679223
 21
139.62056026682
 31
0.0
 11
-737.2361891217912
 21
139.8085443484471
 31
0.0
 11
-737.1260252409065
 21
139.9671872091488
 31
0.0
  0
SPLINE
  5
175
330
1F
100
AcDbEntity
  8
0
  6
Continuous
 62
     7
100
AcDbSpline
210
0.0
220
0.0
230
1.0
 70
  1064
 71
     3
 72
     9
 73
     5
 74
     3
 42
0.000000001
 43
0.0000000001
 44
0.00000001
 40
0.0
 40
0.0
 40
0.0
 40
0.0
 40
0.0263002554884595
 40
0.0525897571405612
 40
0.0525897571405612
 40
0.0525897571405612
 40
0.0525897571405612
 10
-737.6551958091738
 20
137.5980803420754
 30
0.0
 10
-737.6555761897561
 20
137.5893210031579
 30
0.0
 10
-737.6563367753985
 20
137.5718059062841
 30
0.0
 10
-737.656445605882
 20
137.5542746417554
 30
0.0
 10
-737.6565000000011
 20
137.5455108017488
 30
0.0
 11
-737.6551958091738
 21
137.5980803420754
 31
0.0
 11
-737.6561739354904
 21
137.571798281384
 31
0.0
 11
-737.6565000000011
 21
137.5455108017488
 31
0.0
  0
SPLINE
  5
176
330
1F
100
AcDbEntity
  8
0
  6
Continuous
 62
     7
100
AcDbSpline
210
0.0
220
0.0
230
1.0
 70
  1064
 71
     3
 72
     9
 73
     5
 74
     3
 42
0.000000001
 43
0.0000000001
 44
0.00000001
 40
0.0
 40
0.0
 40
0.0
 40
0.0
 40
0.0307400043363517
 40
0.0614971971842242
 40
0.0614971971842242
 40
0.0614971971842242
 40
0.0614971971842242
 10
-737.6565624340706
 20
138.468769690205
 30
0.0
 10
-737.6564880422387
 20
138.4790174330968
 30
0.0
 10
-737.6563391969871
 20
138.4995186485506
 30
0.0
 10
-737.6552994355637
 20
138.5199940230326
 30
0.0
 10
-737.6547793995508
 20
138.5302345713523
 30
0.0
 11
-737.6565624340706
 21
138.468769690205
 31
0.0
 11
-737.6561166440308
 21
138.4995064621037
 31
0.0
 11
-737.6547793995508
 21
138.5302345713523
 31
0.0
  0
SPLINE
  5
177
330
1F
100
AcDbEntity
  8
0
  6
Continuous
 62
     7
100
AcDbSpline
210
0.0
220
0.0
230
1.0
 70
  1064
 71
     3
 72
    11
 73
     7
 74
     5
 42
0.000000001
 43
0.0000000001
 44
0.00000001
 40
0.0
 40
0.0
 40
0.0
 40
0.0
 40
0.4530556100361943
 40
0.8602413530413296
 40
1.228991847954517
 40
1.575326792612112
 40
1.575326792612112
 40
1.575326792612112
 40
1.575326792612112
 10
-736.8051537620074
 20
137.2191035429881
 30
0.0
 10
-736.9303294381408
 20
137.3046439786376
 30
0.0
 10
-737.1680073006585
 20
137.4670642722423
 30
0.0
 10
-737.4402699195327
 20
137.777345409549
 30
0.0
 10
-737.6218639226081
 20
138.1135398829195
 30
0.0
 10
-737.6452405278791
 20
138.3528603875754
 30
0.0
 10
-737.6565624340706
 20
138.468769690205
 30
0.0
 11
-736.8051537620074
 21
137.2191035429881
 31
0.0
 11
-737.1676149751238
 21
137.4909146062799
 31
0.0
 11
-737.4360229473912
 21
137.797112894467
 31
0.0
 11
-737.6009384315098
 21
138.1269307428414
 31
0.0
 11
-737.6565624340706
 21
138.468769690205
 31
0.0
  0
SPLINE
  5
178
330
1F
100
AcDbEntity
  8
0
  6
Continuous
 62
     2
100
AcDbSpline
210
0.0
220
0.0
230
1.0
 70
  1064
 71
     3
 72
    19
 73
    15
 74
    13
 42
0.000000001
 43
0.0000000001
 44
0.00000001
 40
0.0
 40
0.0
 40
0.0
 40
0.0
 40
0.4170079198086621
 40
0.8047679438244543
 40
1.202611556545121
 40
1.645294003164421
 40
2.150634768559695
 40
2.719659615284487
 40
3.34143755414854
 40
3.997486131085205
 40
4.665174424374099
 40
5.32056644159096
 40
5.941105873570768
 40
6.508470699226472
 40
6.508470699226472
 40
6.508470699226472
 40
6.508470699226472
 10
-731.8600996272347
 20
139.9671872091489
 30
0.0
 10
-731.7855066230069
 20
139.8480409114257
 30
0.0
 10
-731.641552389415
 20
139.6181049371441
 30
0.0
 10
-731.6023721716481
 20
139.2040811256213
 30
0.0
 10
-731.7296370214273
 20
138.8053900936553
 30
0.0
 10
-732.0101113369685
 20
138.4457547574053
 30
0.0
 10
-732.4177632940385
 20
138.1394407643595
 30
0.0
 10
-732.9318565955732
 20
137.8966828134569
 30
0.0
 10
-733.5264889025535
 20
137.7282705431754
 30
0.0
 10
-734.1712855329413
 20
137.6426238533111
 30
0.0
 10
-734.833269334843
 20
137.6432909838434
 30
0.0
 10
-735.4760275118833
 20
137.7334268620253
 30
0.0
 10
-736.0728166542784
 20
137.8972021975793
 30
0.0
 10
-736.4228237704751
 20
138.0845890256234
 30
0.0
 10
-736.5899935754233
 20
138.1740884119372
 30
0.0
 11
-731.8600996272347
 21
139.9671872091489
 31
0.0
 11
-731.6679328061371
 21
139.5970959694671
 31
0.0
 11
-731.6287664840443
 21
139.2113190420747
 31
0.0
 11
-731.744723276784
 21
138.8307489915901
 31
0.0
 11
-732.009521828267
 21
138.4759962941284
 31
0.0
 11
-732.4088227361082
 21
138.1662737170728
 31
0.0
 11
-732.920999779147
 21
137.9183544696029
 31
0.0
 11
-733.5183158092174
 21
137.7456658309978
 31
0.0
 11
-734.1684211762906
 21
137.6575593763779
 31
0.0
 11
-734.8361083030662
 21
137.6588075415143
 31
0.0
 11
-735.4852171003314
 21
137.7493418735973
 31
0.0
 11
-736.0805932788618
 21
137.9242601146216
 31
0.0
 11
-736.5899935754233
 21
138.1740884119372
 31
0.0
  0
SPLINE
  5
179
330
1F
100
AcDbEntity
  8
0
  6
Continuous
 62
     7
100
AcDbSpline
210
0.0
220
0.0
230
1.0
 70
  1064
 71
     3
 72
     9
 73
     5
 74
     3
 42
0.000000001
 43
0.0000000001
 44
0.00000001
 40
0.0
 40
0.0
 40
0.0
 40
0.0
 40
0.0307571928477923
 40
0.0614971971841992
 40
0.0614971971841992
 40
0.0614971971841992
 40
0.0614971971841992
 10
-731.3313454685904
 20
138.5302345713524
 30
0.0
 10
-731.3308254325773
 20
138.5199940230327
 30
0.0
 10
-731.3297856711538
 20
138.4995186485507
 30
0.0
 10
-731.3296368259022
 20
138.4790174330969
 30
0.0
 10
-731.3295624340706
 20
138.4687696902051
 30
0.0
 11
-731.3313454685904
 21
138.5302345713524
 31
0.0
 11
-731.3300082241102
 21
138.4995064621038
 31
0.0
 11
-731.3295624340706
 21
138.4687696902051
 31
0.0
  0
SPLINE
  5
17A
330
1F
100
AcDbEntity
  8
0
  6
Continuous
 62
     7
100
AcDbSpline
210
0.0
220
0.0
230
1.0
 70
  1064
 71
     3
 72
    15
 73
    11
 74
     9
 42
0.000000001
 43
0.0000000001
 44
0.00000001
 40
0.0
 40
0.0
 40
0.0
 40
0.0
 40
0.197296519479249
 40
0.3724261709024774
 40
0.5503710778016382
 40
0.7510680154303023
 40
0.9580865229639607
 40
1.141685220740884
 40
1.346357218994219
 40
1.55286740067416
 40
1.55286740067416
 40
1.55286740067416
 40
1.55286740067416
 10
-731.3313454685904
 20
138.5302345713524
 30
0.0
 10
-731.3365780277803
 20
138.5958236239446
 30
0.0
 10
-731.3464552661287
 20
138.7196325968999
 30
0.0
 10
-731.377699725763
 20
138.9006276559494
 30
0.0
 10
-731.4203888230942
 20
139.0803240185308
 30
0.0
 10
-731.4793784555497
 20
139.2666274058509
 30
0.0
 10
-731.5531144377012
 20
139.4496524249589
 30
0.0
 10
-731.6408509461055
 20
139.6277569037812
 30
0.0
 10
-731.7403143306101
 20
139.7996001142316
 30
0.0
 10
-731.8200523684574
 20
139.9111586067971
 30
0.0
 10
-731.8600996272347
 20
139.9671872091489
 30
0.0
 11
-731.3313454685904
 21
138.5302345713524
 31
0.0
 11
-731.3502047161938
 21
138.7266276608005
 31
0.0
 11
-731.379304861122
 21
138.8993227001767
 31
0.0
 11
-731.4206114420732
 21
139.0724069470253
 31
0.0
 11
-731.4811102898883
 21
139.2637682557742
 31
0.0
 11
-731.558523864179
 21
139.4557677382807
 31
0.0
 11
-731.6394677002187
 21
139.6205602668201
 31
0.0
 11
-731.7427267716411
 21
139.7972752671061
 31
0.0
 11
-731.8600996272347
 21
139.9671872091489
 31
0.0
  0
SPLINE
  5
17B
330
1F
100
AcDbEntity
  8
0
  6
Continuous
 62
     7
100
AcDbSpline
210
0.0
220
0.0
230
1.0
 70
  1064
 71
     3
 72
    17
 73
    13
 74
    11
 42
0.000000001
 43
0.0000000001
 44
0.00000001
 40
0.0
 40
0.0
 40
0.0
 40
0.0
 40
0.4427459343942283
 40
0.929830404195682
 40
1.487021560384048
 40
2.118874484412769
 40
2.814341537703169
 40
3.552471295610679
 40
4.306797489537626
 40
5.048936964665099
 40
5.751940236163572
 40
6.393827413714779
 40
6.393827413714779
 40
6.393827413714779
 40
6.393827413714779
 10
-731.3295624340706
 20
138.4687696902051
 30
0.0
 10
-731.3485434359152
 20
138.3204562396636
 30
0.0
 10
-731.3884062943154
 20
138.0089765781924
 30
0.0
 10
-731.6849834343187
 20
137.5914563964253
 30
0.0
 10
-732.1170209438766
 20
137.2334032212955
 30
0.0
 10
-732.6817447874715
 20
136.9469695084682
 30
0.0
 10
-733.3425526145147
 20
136.7448231495523
 30
0.0
 10
-734.066398357886
 20
136.6374364066104
 30
0.0
 10
-734.8138822943286
 20
136.6295673069271
 30
0.0
 10
-735.5421530813705
 20
136.7253466592122
 30
0.0
 10
-736.2191963711196
 20
136.9066053492711
 30
0.0
 10
-736.615842926559
 20
137.1181417703863
 30
0.0
 10
-736.8051537620074
 20
137.2191035429881
 30
0.0
 11
-731.3295624340706
 21
138.4687696902051
 31
0.0
 11
-731.41951360438
 21
138.0352575724997
 31
0.0
 11
-731.6842499152549
 21
137.6263982196043
 31
0.0
 11
-732.1087181516854
 21
137.2654429600331
 31
0.0
 11
-732.6687781661044
 21
136.9729179234172
 31
0.0
 11
-733.3325818219846
 21
136.765459184909
 31
0.0
 11
-734.0623791477708
 21
136.6548635133608
 31
0.0
 11
-734.8166686282182
 21
136.6474213006011
 31
0.0
 11
-735.5525554226288
 21
136.7435546781232
 31
0.0
 11
-736.2281908282258
 21
136.9377978134279
 31
0.0
 11
-736.8051537620074
 21
137.2191035429881
 31
0.0
  0
SPLINE
  5
17C
330
1F
100
AcDbEntity
  8
0
  6
Continuous
 62
     2
100
AcDbSpline
210
0.0
220
0.0
230
1.0
 70
  1064
 71
     3
 72
    17
 73
    13
 74
    11
 42
0.000000001
 43
0.0000000001
 44
0.00000001
 40
0.0
 40
0.0
 40
0.0
 40
0.0
 40
0.4427459343941448
 40
0.9298304041956224
 40
1.487021560383952
 40
2.118874484412673
 40
2.814341537703089
 40
3.552471295610604
 40
4.306797489537551
 40
5.048936964665032
 40
5.751940236163512
 40
6.393827413714707
 40
6.393827413714707
 40
6.393827413714707
 40
6.393827413714707
 10
-731.3295624340706
 20
137.6540976104615
 30
0.0
 10
-731.3485434359152
 20
137.50578415992
 30
0.0
 10
-731.3884062943154
 20
137.1943044984488
 30
0.0
 10
-731.6849834343186
 20
136.7767843166817
 30
0.0
 10
-732.1170209438773
 20
136.4187311415521
 30
0.0
 10
-732.6817447874714
 20
136.1322974287247
 30
0.0
 10
-733.3425526145147
 20
135.9301510698087
 30
0.0
 10
-734.0663983578861
 20
135.8227643268668
 30
0.0
 10
-734.8138822943283
 20
135.8148952271835
 30
0.0
 10
-735.5421530813708
 20
135.9106745794688
 30
0.0
 10
-736.2191963711196
 20
136.0919332695276
 30
0.0
 10
-736.6158429265589
 20
136.3034696906428
 30
0.0
 10
-736.8051537620074
 20
136.4044314632446
 30
0.0
 11
-731.3295624340706
 21
137.6540976104615
 31
0.0
 11
-731.41951360438
 21
137.2205854927562
 31
0.0
 11
-731.6842499152549
 21
136.8117261398607
 31
0.0
 11
-732.1087181516854
 21
136.4507708802896
 31
0.0
 11
-732.6687781661044
 21
136.1582458436737
 31
0.0
 11
-733.3325818219846
 21
135.9507871051655
 31
0.0
 11
-734.0623791477708
 21
135.8401914336172
 31
0.0
 11
-734.8166686282182
 21
135.8327492208575
 31
0.0
 11
-735.5525554226288
 21
135.9288825983797
 31
0.0
 11
-736.2281908282258
 21
136.1231257336844
 31
0.0
 11
-736.8051537620074
 21
136.4044314632446
 31
0.0
  0
SPLINE
  5
17D
330
1F
100
AcDbEntity
  8
0
  6
Continuous
 62
     7
100
AcDbSpline
210
0.0
220
0.0
230
1.0
 70
  1064
 71
     3
 72
    13
 73
     9
 74
     7
 42
0.000000001
 43
0.0000000001
 44
0.00000001
 40
0.0
 40
0.0
 40
0.0
 40
0.0
 40
1.154814996201158
 40
2.223037142787113
 40
3.193959045684143
 40
4.06849524758888
 40
4.862960893489207
 40
5.611016099774432
 40
5.611016099774432
 40
5.611016099774432
 40
5.611016099774432
 10
-731.3295000000007
 20
130.5643193454709
 30
0.0
 10
-730.9634714172066
 20
130.4432605161558
 30
0.0
 10
-730.2588606071158
 20
130.210220342529
 30
0.0
 10
-729.3150287461199
 20
129.7067803866487
 30
0.0
 10
-728.534978199299
 20
129.118226381253
 30
0.0
 10
-727.955428476159
 20
128.4499650814485
 30
0.0
 10
-727.5731857571625
 20
127.7210202444758
 30
0.0
 10
-727.5239009641268
 20
127.2050141654713
 30
0.0
 10
-727.5000000000005
 20
126.9547737650833
 30
0.0
 11
-731.3295000000007
 21
130.5643193454709
 31
0.0
 11
-730.2442840828329
 21
130.1694724433793
 31
0.0
 11
-729.3018245684564
 21
129.6666120077123
 31
0.0
 11
-728.5337886426744
 21
129.0726337579384
 31
0.0
 11
-727.9659815844916
 21
128.407495637726
 31
0.0
 11
-727.6174824633777
 21
127.6935460362611
 31
0.0
 11
-727.5000000000005
 21
126.9547737650833
 31
0.0
  0
SPLINE
  5
17E
330
1F
100
AcDbEntity
  8
0
  6
Continuous
 62
     7
100
AcDbSpline
210
0.0
220
0.0
230
1.0
 70
  1064
 71
     3
 72
    21
 73
    17
 74
    15
 42
0.000000001
 43
0.0000000001
 44
0.00000001
 40
0.0
 40
0.0
 40
0.0
 40
0.0
 40
0.4150740633407518
 40
0.8672986217296327
 40
1.379711547112758
 40
1.958474002152748
 40
2.596725949900721
 40
3.278946603035987
 40
3.984386792735062
 40
4.689826982433919
 40
5.372047635569197
 40
6.010299583317189
 40
6.589062038357207
 40
7.101474963740269
 40
7.553699522129198
 40
7.968773585469972
 40
7.968773585469972
 40
7.968773585469972
 40
7.968773585469972
 10
-737.6565000000011
 20
137.5455108017488
 30
0.0
 10
-737.6399337106834
 20
137.4065096116204
 30
0.0
 10
-737.60531837807
 20
137.1160661720811
 30
0.0
 10
-737.3445458599462
 20
136.7205498191894
 30
0.0
 10
-736.9603296635162
 20
136.3748331458916
 30
0.0
 10
-736.4541719570186
 20
136.0897553505809
 30
0.0
 10
-735.8557201518801
 20
135.8764124416089
 30
0.0
 10
-735.1911912133926
 20
135.7442412167162
 30
0.0
 10
-734.4930000000011
 20
135.6994673938802
 30
0.0
 10
-733.7948087866095
 20
135.7442412167164
 30
0.0
 10
-733.1302798481216
 20
135.8764124416091
 30
0.0
 10
-732.5318280429838
 20
136.0897553505812
 30
0.0
 10
-732.0256703364862
 20
136.3748331458918
 30
0.0
 10
-731.6414541400561
 20
136.7205498191899
 30
0.0
 10
-731.3806816219324
 20
137.1160661720815
 30
0.0
 10
-731.3460662893186
 20
137.4065096116208
 30
0.0
 10
-731.3295000000011
 20
137.5455108017492
 30
0.0
 11
-737.6565000000011
 21
137.5455108017488
 31
0.0
 11
-737.577184124186
 21
137.138085379843
 31
0.0
 11
-737.3432150136103
 21
136.7510898858806
 31
0.0
 11
-736.966323633355
 21
136.4039301375846
 31
0.0
 11
-736.4654099881812
 21
136.1140137753331
 31
0.0
 11
-735.8655910636147
 21
135.895878946432
 31
0.0
 11
-735.1969449745718
 21
135.7604632070263
 31
0.0
 11
-734.493000000001
 21
135.7145575756321
 31
0.0
 11
-733.7890550254303
 21
135.7604632070264
 31
0.0
 11
-733.1204089363874
 21
135.8958789464322
 31
0.0
 11
-732.5205900118209
 21
136.1140137753333
 31
0.0
 11
-732.0196763666471
 21
136.4039301375849
 31
0.0
 11
-731.6427849863919
 21
136.7510898858809
 31
0.0
 11
-731.4088158758162
 21
137.1380853798434
 31
0.0
 11
-731.3295000000011
 21
137.5455108017492
 31
0.0
  0
SPLINE
  5
17F
330
1F
100
AcDbEntity
  8
0
  6
Continuous
 62
     7
100
AcDbSpline
210
0.0
220
0.0
230
1.0
 70
  1064
 71
     3
 72
    11
 73
     7
 74
     5
 42
0.000000001
 43
0.0000000001
 44
0.00000001
 40
0.0
 40
0.0
 40
0.0
 40
0.0
 40
0.3623364132566732
 40
0.7501278451484426
 40
1.181015808604113
 40
1.662433181856431
 40
1.662433181856431
 40
1.662433181856431
 40
1.662433181856431
 10
-737.6565000000007
 20
128.208301462986
 30
0.0
 10
-737.6440596046812
 20
128.0870062725883
 30
0.0
 10
-737.6183048313881
 20
127.8358946108686
 30
0.0
 10
-737.4194190055871
 20
127.4856443515533
 30
0.0
 10
-737.1227403849772
 20
127.1651976515304
 30
0.0
 10
-736.8656154177975
 20
127.0005207618931
 30
0.0
 10
-736.7299323022842
 20
126.9136218839141
 30
0.0
 11
-737.6565000000007
 21
128.208301462986
 31
0.0
 11
-737.5957140873924
 21
127.851100187692
 31
0.0
 11
-737.4156929010999
 21
127.5076259238534
 31
0.0
 11
-737.1233539937604
 21
127.19107829323
 31
0.0
 11
-736.7299323022842
 21
126.9136218839141
 31
0.0
  0
SPLINE
  5
180
330
1F
100
AcDbEntity
  8
0
  6
Continuous
 62
     2
100
AcDbSpline
210
0.0
220
0.0
230
1.0
 70
  1064
 71
     3
 72
    13
 73
     9
 74
     7
 42
0.000000001
 43
0.0000000001
 44
0.00000001
 40
0.0
 40
0.0
 40
0.0
 40
0.0
 40
0.5312457552467873
 40
1.010188754696502
 40
1.471952134478595
 40
1.958549265620862
 40
2.502253523398124
 40
3.117622403490131
 40
3.117622403490131
 40
3.117622403490131
 40
3.117622403490131
 10
-737.6565000000007
 20
128.7456839174617
 30
0.0
 10
-737.7740678332939
 20
128.6115466353293
 30
0.0
 10
-737.9976285797295
 20
128.3564782855008
 30
0.0
 10
-738.1643782822122
 20
127.8808902010299
 30
0.0
 10
-738.1472931177061
 20
127.3942304687645
 30
0.0
 10
-737.9417879825364
 20
126.930720790929
 30
0.0
 10
-737.5773124121664
 20
126.5098696934348
 30
0.0
 10
-737.2517988657809
 20
126.2989659101977
 30
0.0
 10
-737.0789789590941
 20
126.1869940132455
 30
0.0
 11
-737.6565000000007
 21
128.7456839174617
 31
0.0
 11
-737.9790250198743
 21
128.323546891346
 31
0.0
 11
-738.1357817024043
 21
127.8709833688729
 31
0.0
 11
-738.1193146330634
 21
127.4095136984535
 31
0.0
 11
-737.9304081394553
 21
126.9610818676465
 31
0.0
 11
-737.5780439414684
 21
126.5470120736906
 31
0.0
 11
-737.0789789590941
 21
126.1869940132455
 31
0.0
  0
SPLINE
  5
181
330
1F
100
AcDbEntity
  8
0
  6
Continuous
 62
     7
100
AcDbSpline
210
0.0
220
0.0
230
1.0
 70
  1064
 71
     3
 72
    17
 73
    13
 74
    11
 42
0.000000001
 43
0.0000000001
 44
0.00000001
 40
0.0
 40
0.0
 40
0.0
 40
0.0
 40
0.6419261098871007
 40
1.340901415497803
 40
2.075088907511869
 40
2.81836675074516
 40
3.543577780723169
 40
4.225649914021609
 40
4.844979096887617
 40
5.391578280982396
 40
5.870443425897088
 40
6.306716821814808
 40
6.306716821814808
 40
6.306716821814808
 40
6.306716821814808
 10
-736.7299323022842
 20
126.9136218839141
 30
0.0
 10
-736.538003245388
 20
126.8178031339732
 30
0.0
 10
-736.1370880258728
 20
126.6176500506758
 30
0.0
 10
-735.4611453333407
 20
126.4496521315602
 30
0.0
 10
-734.7391630516921
 20
126.3657567092802
 30
0.0
 10
-734.0026017111064
 20
126.3827948677942
 30
0.0
 10
-733.2923808356888
 20
126.4963537450213
 30
0.0
 10
-732.6461238120146
 20
126.7014640950188
 30
0.0
 10
-732.0952091627445
 20
126.9878293650117
 30
0.0
 10
-731.6745121583297
 20
127.3431635636235
 30
0.0
 10
-731.3864955690019
 20
127.7556278841465
 30
0.0
 10
-731.3478997521454
 20
128.0621658281401
 30
0.0
 10
-731.3295000000007
 20
128.2083014629864
 30
0.0
 11
-736.7299323022842
 21
126.9136218839141
 31
0.0
 11
-736.1459239753264
 21
126.6471572594816
 31
0.0
 11
-735.4705752617057
 21
126.466961282194
 31
0.0
 11
-734.7412053141749
 21
126.3829925202511
 31
0.0
 11
-733.9981195698458
 21
126.399890118224
 31
0.0
 11
-733.2823811332097
 21
126.5167213132181
 31
0.0
 11
-732.6335413543732
 21
126.7270290305796
 31
0.0
 11
-732.0874560685938
 21
127.0191925064595
 31
0.0
 11
-731.6743008607307
 21
127.3770660049991
 31
0.0
 11
-731.4169081925813
 21
127.7808739362821
 31
0.0
 11
-731.3295000000007
 21
128.2083014629864
 31
0.0
  0
SPLINE
  5
182
330
1F
100
AcDbEntity
  8
0
  6
Continuous
 62
     7
100
AcDbSpline
210
0.0
220
0.0
230
1.0
 70
  1064
 71
     3
 72
    13
 73
     9
 74
     7
 42
0.000000001
 43
0.0000000001
 44
0.00000001
 40
0.0
 40
0.0
 40
0.0
 40
0.0
 40
0.7480552062852915
 40
1.542520852185646
 40
2.417057054090331
 40
3.387978956987503
 40
4.456201103573411
 40
5.611016099774501
 40
5.611016099774501
 40
5.611016099774501
 40
5.611016099774501
 10
-741.4860000000006
 20
126.9547737650824
 30
0.0
 10
-741.4620990358741
 20
127.2050141654704
 30
0.0
 10
-741.4128142428385
 20
127.721020244475
 30
0.0
 10
-741.0305715238427
 20
128.4499650814478
 30
0.0
 10
-740.4510218007023
 20
129.1182263812524
 30
0.0
 10
-739.6709712538812
 20
129.7067803866481
 30
0.0
 10
-738.7271393928856
 20
130.2102203425285
 30
0.0
 10
-738.022528582795
 20
130.4432605161554
 30
0.0
 10
-737.6565000000007
 20
130.5643193454705
 30
0.0
 11
-741.4860000000006
 21
126.9547737650824
 31
0.0
 11
-741.3685175366235
 21
127.6935460362602
 31
0.0
 11
-741.0200184155096
 21
128.4074956377253
 31
0.0
 11
-740.452211357327
 21
129.0726337579377
 31
0.0
 11
-739.6841754315449
 21
129.6666120077116
 31
0.0
 11
-738.7417159171684
 21
130.1694724433788
 31
0.0
 11
-737.6565000000007
 21
130.5643193454705
 31
0.0
  0
SPLINE
  5
183
330
1F
100
AcDbEntity
  8
0
  6
Continuous
 62
     2
100
AcDbSpline
210
0.0
220
0.0
230
1.0
 70
  1064
 71
     3
 72
    19
 73
    15
 74
    13
 42
0.000000001
 43
0.0000000001
 44
0.00000001
 40
0.0
 40
0.0
 40
0.0
 40
0.0
 40
0.7570331016057334
 40
1.582127250258176
 40
2.448359216437164
 40
3.323622464281386
 40
4.174742572131844
 40
4.971454160418582
 40
5.690761981755388
 40
6.322366721018827
 40
6.875647603368245
 40
7.38554125674175
 40
7.906096015033793
 40
8.486260437293746
 40
8.486260437293746
 40
8.486260437293746
 40
8.486260437293746
 10
-737.0789789590941
 20
126.1869940132455
 30
0.0
 10
-736.852479038566
 20
126.0742581820992
 30
0.0
 10
-736.3791157204876
 20
125.8386510199292
 30
0.0
 10
-735.5804682143586
 20
125.6441911305878
 30
0.0
 10
-734.728390285085
 20
125.5508795033828
 30
0.0
 10
-733.8614967826957
 20
125.5787488257462
 30
0.0
 10
-733.0299086880225
 20
125.7220603335869
 30
0.0
 10
-732.2784689278141
 20
125.9742105463801
 30
0.0
 10
-731.6474116609676
 20
126.3223584798677
 30
0.0
 10
-731.1701853930228
 20
126.7512731966281
 30
0.0
 10
-730.8758356188187
 20
127.2477944679286
 30
0.0
 10
-730.8030674938875
 20
127.7852904180718
 30
0.0
 10
-730.9593034824578
 20
128.3183328800212
 30
0.0
 10
-731.2017250296551
 20
128.5981818150691
 30
0.0
 10
-731.3295000000007
 20
128.7456839174621
 30
0.0
 11
-737.0789789590941
 21
126.1869940132455
 31
0.0
 11
-736.3896978804887
 21
125.8739593408825
 31
0.0
 11
-735.5915561508343
 21
125.6647940188238
 31
0.0
 11
-734.7303623006187
 21
125.5715043007157
 31
0.0
 11
-733.8555450816812
 21
125.5994432883075
 31
0.0
 11
-733.0173148722758
 21
125.7470087141939
 31
0.0
 11
-732.2637813588494
 21
126.0057297999304
 31
0.0
 11
-731.6381948442291
 21
126.360758328302
 31
0.0
 11
-731.176459384156
 21
126.7917164622004
 31
0.0
 11
-730.9050782528968
 21
127.2738699834679
 31
0.0
 11
-730.8396252777878
 21
127.7795452226991
 31
0.0
 11
-730.9838593753564
 21
128.2797189767241
 31
0.0
 11
-731.3295000000007
 21
128.7456839174621
 31
0.0
  0
SPLINE
  5
184
330
1F
100
AcDbEntity
  8
0
  6
Continuous
 62
     7
100
AcDbSpline
210
0.0
220
0.0
230
1.0
 70
  1064
 71
     3
 72
    11
 73
     7
 74
     5
 42
0.000000001
 43
0.0000000001
 44
0.00000001
 40
0.0
 40
0.0
 40
0.0
 40
0.0
 40
0.8009541797989981
 40
1.658177349380286
 40
2.61066653477195
 40
3.674852306124659
 40
3.674852306124659
 40
3.674852306124659
 40
3.674852306124659
 10
-727.5000000000002
 20
122.3208913811634
 30
0.0
 10
-727.5274998213392
 20
122.0527651697642
 30
0.0
 10
-727.5844314081926
 20
121.497676227604
 30
0.0
 10
-728.0240737708009
 20
120.7234388119328
 30
0.0
 10
-728.679889664808
 20
120.0150829421319
 30
0.0
 10
-729.2482711820215
 20
119.6510603574961
 30
0.0
 10
-729.5482022791628
 20
119.4589681011092
 30
0.0
 11
-727.5000000000002
 21
122.3208913811634
 31
0.0
 11
-727.6343688594498
 21
121.5312885620924
 31
0.0
 11
-728.0323104291488
 21
120.7720296630805
 31
0.0
 11
-728.6785332769524
 21
120.0722927953866
 31
0.0
 11
-729.5482022791628
 21
119.4589681011092
 31
0.0
  0
SPLINE
  5
185
330
1F
100
AcDbEntity
  8
0
  6
Continuous
 62
     7
100
AcDbSpline
210
0.0
220
0.0
230
1.0
 70
  1064
 71
     3
 72
     9
 73
     5
 74
     3
 42
0.000000001
 43
0.0000000001
 44
0.00000001
 40
0.0
 40
0.0
 40
0.0
 40
0.0
 40
0.7914060726748552
 40
1.53685751317197
 40
1.53685751317197
 40
1.53685751317197
 40
1.53685751317197
 10
-727.9628220446426
 20
123.7688490213969
 30
0.0
 10
-727.8283646391424
 20
123.5376217242444
 30
0.0
 10
-727.5672573940465
 20
123.0885938145091
 30
0.0
 10
-727.5219677125322
 20
122.5716395926082
 30
0.0
 10
-727.5000000000002
 20
122.3208913811634
 30
0.0
 11
-727.9628220446426
 21
123.7688490213969
 31
0.0
 11
-727.6166791241269
 21
123.0571548084278
 31
0.0
 11
-727.5000000000002
 21
122.3208913811634
 31
0.0
  0
SPLINE
  5
186
330
1F
100
AcDbEntity
  8
0
  6
Continuous
 62
     7
100
AcDbSpline
210
0.0
220
0.0
230
1.0
 70
  1064
 71
     3
 72
    11
 73
     7
 74
     5
 42
0.000000001
 43
0.0000000001
 44
0.00000001
 40
0.0
 40
0.0
 40
0.0
 40
0.0
 40
0.7246728290959996
 40
1.500255696470453
 40
2.362031625873206
 40
3.324866371469368
 40
3.324866371469368
 40
3.324866371469368
 40
3.324866371469368
 10
-728.1660000000003
 20
123.2615936702458
 30
0.0
 10
-728.1908807907273
 20
123.019003288586
 30
0.0
 10
-728.2423903230482
 20
122.5167799604154
 30
0.0
 10
-728.6401619836032
 20
121.8162794415018
 30
0.0
 10
-729.2335192213673
 20
121.17538603601
 30
0.0
 10
-729.7477691646619
 20
120.8460322678957
 30
0.0
 10
-730.0191353954331
 20
120.6722345121015
 30
0.0
 11
-728.1660000000003
 21
123.2615936702458
 31
0.0
 11
-728.2875718252166
 21
122.5471911196578
 31
0.0
 11
-728.6476141978014
 21
121.8602425919803
 31
0.0
 11
-729.2322920124808
 21
121.2271473307335
 31
0.0
 11
-730.0191353954331
 21
120.6722345121015
 31
0.0
  0
SPLINE
  5
187
330
1F
100
AcDbEntity
  8
0
  6
Continuous
 62
     7
100
AcDbSpline
210
0.0
220
0.0
230
1.0
 70
  1064
 71
     3
 72
    15
 73
    11
 74
     9
 42
0.000000001
 43
0.0000000001
 44
0.00000001
 40
0.0
 40
0.0
 40
0.0
 40
0.0
 40
0.0443628614739877
 40
0.0813516640091582
 40
0.1196007350736371
 40
0.1672052008187135
 40
0.2085101902098864
 40
0.2598578645932496
 40
0.3053547177821587
 40
0.3614271305453125
 40
0.3614271305453125
 40
0.3614271305453125
 40
0.3614271305453125
 10
-738.620792864466
 20
121.2435676573419
 30
0.0
 10
-738.608347318916
 20
121.2516235920564
 30
0.0
 10
-738.5855249521668
 20
121.2663964034478
 30
0.0
 10
-738.556936365497
 20
121.2944838783242
 30
0.0
 10
-738.5315139263556
 20
121.3266927583318
 30
0.0
 10
-738.5103419894549
 20
121.363627657648
 30
0.0
 10
-738.4925887376158
 20
121.4069836705857
 30
0.0
 10
-738.480576849392
 20
121.4515622772525
 30
0.0
 10
-738.4725558516616
 20
121.5020157889007
 30
0.0
 10
-738.471602688952
 20
121.5358939408765
 30
0.0
 10
-738.4710764926206
 20
121.5545967417976
 30
0.0
 11
-738.620792864466
 21
121.2435676573419
 31
0.0
 11
-738.5844603464066
 21
121.2690237340374
 31
0.0
 11
-738.5578209975445
 21
121.2946853156154
 31
0.0
 11
-738.5341393468632
 21
121.3247214770878
 31
0.0
 11
-738.5103107214744
 21
121.3659329067279
 31
0.0
 11
-738.4945896035301
 21
121.4041290935076
 31
0.0
 11
-738.4810072473592
 21
121.45364781065
 31
0.0
 11
-738.4739883019713
 21
121.4985999859785
 31
0.0
 11
-738.4710764926206
 21
121.5545967417976
 31
0.0
  0
SPLINE
  5
188
330
1F
100
AcDbEntity
  8
0
  6
Continuous
 62
     7
100
AcDbSpline
210
0.0
220
0.0
230
1.0
 70
  1064
 71
     3
 72
    31
 73
    27
 74
    25
 42
0.000000001
 43
0.0000000001
 44
0.00000001
 40
0.0
 40
0.0
 40
0.0
 40
0.0
 40
0.0598285167586513
 40
0.1249432551700376
 40
0.1933111882641739
 40
0.2525381039414029
 40
0.3229957083162446
 40
0.3968059711914984
 40
0.4838642904569961
 40
0.5539322940373359
 40
0.6264572960076743
 40
0.7161340598458914
 40
0.877161632858549
 40
1.03135116574124
 40
1.104432779529411
 40
1.173733661625389
 40
1.239952580617625
 40
1.301982051760872
 40
1.335586340684402
 40
1.372810168736197
 40
1.408769014217264
 40
1.439269462769387
 40
1.471208237358185
 40
1.502403083660322
 40
1.531066981550957
 40
1.564026060073133
 40
1.564026060073133
 40
1.564026060073133
 40
1.564026060073133
 10
-739.3664387054175
 20
122.3141701941827
 30
0.0
 10
-739.375052313386
 20
122.2961213202628
 30
0.0
 10
-739.3930405767607
 20
122.2584288350603
 30
0.0
 10
-739.406991397434
 20
122.1950416146348
 30
0.0
 10
-739.4133152352601
 20
122.1310531104543
 30
0.0
 10
-739.413009422198
 20
122.0649387534022
 30
0.0
 10
-739.4070558915367
 20
121.9972944938781
 30
0.0
 10
-739.3941993519952
 20
121.9211905820614
 30
0.0
 10
-739.3754782406633
 20
121.8464329231467
 30
0.0
 10
-739.3517496481179
 20
121.7736074649306
 30
0.0
 10
-739.3233142725259
 20
121.7015409109222
 30
0.0
 10
-739.2769656382325
 20
121.6041767248499
 30
0.0
 10
-739.2059548229477
 20
121.4888416481166
 30
0.0
 10
-739.1216173751401
 20
121.3897737031548
 30
0.0
 10
-739.0476662699871
 20
121.3239609627803
 30
0.0
 10
-738.9912504760176
 20
121.2830893271835
 30
0.0
 10
-738.9338424808029
 20
121.2505346253147
 30
0.0
 10
-738.8838202754912
 20
121.2298729048548
 30
0.0
 10
-738.8412436379693
 20
121.2175330555709
 30
0.0
 10
-738.8062492147222
 20
121.2107022389765
 30
0.0
 10
-738.7717624360547
 20
121.2075785023691
 30
0.0
 10
-738.738916979036
 20
121.2079835888104
 30
0.0
 10
-738.7078442880506
 20
121.2115922864626
 30
0.0
 10
-738.67800400108
 20
121.2185917252154
 30
0.0
 10
-738.6486843279631
 20
121.2287740085161
 30
0.0
 10
-738.6305122216238
 20
121.238412499839
 30
0.0
 10
-738.620792864466
 20
121.2435676573419
 30
0.0
 11
-739.3664387054175
 21
122.3141701941827
 31
0.0
 11
-739.3902224408657
 21
122.2592722425073
 31
0.0
 11
-739.4055066325053
 21
122.1959767291623
 31
0.0
 11
-739.4123565037894
 21
122.127952808201
 31
0.0
 11
-739.4122771663763
 21
122.0687259463206
 31
0.0
 11
-739.4062482585776
 21
121.9985267575028
 31
0.0
 11
-739.3940724501883
 21
121.9257276888408
 31
0.0
 11
-739.3730272414929
 21
121.8412513613881
 31
0.0
 11
-739.3513459110244
 21
121.774622201833
 31
0.0
 11
-739.3247340906262
 21
121.707156011711
 31
0.0
 11
-739.2861706845016
 21
121.6261943816746
 31
0.0
 11
-739.2013157576098
 21
121.4893385439869
 31
0.0
 11
-739.1006372176628
 21
121.372555654009
 31
0.0
 11
-739.0459322464968
 21
121.3240965130022
 31
0.0
 11
-738.9897027767196
 21
121.2835889960073
 31
0.0
 11
-738.9319938902729
 21
121.2511139347996
 31
0.0
 11
-738.8745762064245
 21
121.2276434254062
 31
0.0
 11
-738.8422882430551
 21
121.2183302286436
 31
0.0
 11
-738.8057416450649
 21
121.2112620238745
 31
0.0
 11
-738.7699238378408
 21
121.2080803235132
 31
0.0
 11
-738.7394261486745
 21
121.2084905465264
 31
0.0
 11
-738.7077070690189
 21
121.212230233153
 31
0.0
 11
-738.6773305604446
 21
121.2193285498813
 31
0.0
 11
-738.6503210027264
 21
121.22892557971
 31
0.0
 11
-738.620792864466
 21
121.2435676573419
 31
0.0
  0
SPLINE
  5
189
330
1F
100
AcDbEntity
  8
0
  6
Continuous
 62
     7
100
AcDbSpline
210
0.0
220
0.0
230
1.0
 70
  1064
 71
     3
 72
    19
 73
    15
 74
    13
 42
0.000000001
 43
0.0000000001
 44
0.00000001
 40
0.0
 40
0.0
 40
0.0
 40
0.0
 40
1.061431702412361
 40
2.206433989816411
 40
3.411489673574858
 40
4.647829949303416
 40
5.884170225108586
 40
7.08922590890273
 40
8.234228194590965
 40
9.295659890813793
 40
10.25849463621841
 40
11.12027056941433
 40
11.89585343725084
 40
12.62052626084345
 40
12.62052626084345
 40
12.62052626084345
 40
12.62052626084345
 10
-730.0191353954331
 20
120.6722345121015
 30
0.0
 10
-730.3345995616456
 20
120.5105888406675
 30
0.0
 10
-730.9903656018016
 20
120.1745705259658
 30
0.0
 10
-732.0869904090387
 20
119.8523419228622
 30
0.0
 10
-733.2660412691268
 20
119.6448585139519
 30
0.0
 10
-734.4930963507657
 20
119.576658027533
 30
0.0
 10
-735.7195782627797
 20
119.645464901032
 30
0.0
 10
-736.9002776397796
 20
119.8500365633076
 30
0.0
 10
-737.9913175252582
 20
120.1824922156643
 30
0.0
 10
-738.9518109095059
 20
120.6310526904854
 30
0.0
 10
-739.7495809177561
 20
121.1807109061743
 30
0.0
 10
-740.3464943056547
 20
121.8150743639615
 30
0.0
 10
-740.7434648658954
 20
122.5170458769054
 30
0.0
 10
-740.7950720428965
 20
123.0190898996561
 30
0.0
 10
-740.8200000000003
 20
123.261593670245
 30
0.0
 11
-730.0191353954331
 21
120.6722345121015
 31
0.0
 11
-730.9779073024083
 21
120.2168295546979
 31
0.0
 11
-732.0717619234264
 21
119.878432891451
 31
0.0
 11
-733.2586635911496
 21
119.6700495143991
 31
0.0
 11
-734.4930000000003
 21
119.5996868309431
 31
0.0
 11
-735.727336408851
 21
119.670049514399
 31
0.0
 11
-736.9142380765741
 21
119.8784328914508
 31
0.0
 11
-738.0080926975922
 21
120.2168295546976
 31
0.0
 11
-738.9668646045676
 21
120.6722345121011
 31
0.0
 11
-739.7537079875196
 21
121.2271473307329
 31
0.0
 11
-740.3383858021991
 21
121.8602425919797
 31
0.0
 11
-740.698428174784
 21
122.547191119657
 31
0.0
 11
-740.8200000000003
 21
123.261593670245
 31
0.0
  0
SPLINE
  5
18A
330
1F
100
AcDbEntity
  8
0
  6
Continuous
 62
     7
100
AcDbSpline
210
0.0
220
0.0
230
1.0
 70
  1064
 71
     3
 72
    19
 73
    15
 74
    13
 42
0.000000001
 43
0.0000000001
 44
0.00000001
 40
0.0
 40
0.0
 40
0.0
 40
0.0
 40
0.8009541742956013
 40
1.658177344339034
 40
2.610666533523817
 40
3.674852304685248
 40
4.848013653096793
 40
6.113542495145033
 40
7.445446145638448
 40
8.81192750310138
 40
10.17840886048768
 40
11.51031251094525
 40
12.77584135470925
 40
13.94900270931038
 40
13.94900270931038
 40
13.94900270931038
 40
13.94900270931038
 10
-727.5000000000005
 20
125.2168066616303
 30
0.0
 10
-727.527551952618
 20
124.948776178063
 30
0.0
 10
-727.5845914627512
 20
124.3938854153194
 30
0.0
 10
-728.0233484002617
 20
123.6180221649097
 30
0.0
 10
-728.6830947760407
 20
122.9168836062843
 30
0.0
 10
-729.5648405748111
 20
122.309366631285
 30
0.0
 10
-730.626438525766
 20
121.8135892644735
 30
0.0
 10
-731.8323247149867
 20
121.446138280377
 30
0.0
 10
-733.137308236923
 20
121.220032758965
 30
0.0
 10
-734.492893508085
 20
121.1439830567231
 30
0.0
 10
-735.8491122825467
 20
121.2193625416437
 30
0.0
 10
-737.1522737593318
 20
121.4486863094746
 30
0.0
 10
-738.3643327569247
 20
121.8048337117486
 30
0.0
 10
-739.0891268004947
 20
122.1762223764127
 30
0.0
 10
-739.437797720838
 20
122.3548833815758
 30
0.0
 11
-727.5000000000005
 21
125.2168066616303
 31
0.0
 11
-727.6343688594499
 21
124.4272038425594
 31
0.0
 11
-728.0323104291489
 21
123.6679449435474
 31
0.0
 11
-728.6785332769525
 21
122.9682080758536
 31
0.0
 11
-729.5482022791629
 21
122.3548833815762
 31
0.0
 11
-730.6078975447672
 21
121.8515410602353
 31
0.0
 11
-731.8168947574713
 21
121.477523695594
 31
0.0
 11
-733.1287334428497
 21
121.2472052262209
 31
0.0
 11
-734.4930000000005
 21
121.1694359445063
 31
0.0
 11
-735.8572665571513
 21
121.2472052262207
 31
0.0
 11
-737.1691052425297
 21
121.4775236955938
 31
0.0
 11
-738.3781024552337
 21
121.851541060235
 31
0.0
 11
-739.437797720838
 21
122.3548833815758
 31
0.0
  0
SOLID
  5
18B
330
1F
100
AcDbEntity
  8
1
 62
     2
100
AcDbTrace
 10
-797.7500000001437
 20
55.13649584983454
 30
0.0
 11
-797.7500000001437
 21
55.53145334259673
 31
0.0
 12
-796.2500000001437
 22
55.33397459621563
 32
0.0
 13
-796.2500000001437
 23
55.33397459621563
 33
0.0
  0
LEADER
  5
18C
330
1F
100
AcDbEntity
  8
1
  6
Continuous
 62
     2
100
AcDbLeader
  3
Standard
 71
     0
 76
     2
 10
-796.2500000001437
 20
55.33397459621563
 30
0.0
 10
-800.2500000001437
 20
55.33397459621563
 30
0.0
  0
TEXT
  5
18E
330
1F
100
AcDbEntity
  8
1
 62
     4
100
AcDbText
 10
-800.2500000001437
 20
56.08274926015065
 30
0.0
 40
1.75
  1
*
 41
0.95
  7
CONVERTER_14
100
AcDbText
  0
MTEXT
  5
190
330
1F
100
AcDbEntity
  8
1
 62
     4
100
AcDbMText
 10
-802.0
 20
21.50000000000006
 30
0.0
 40
1.375
 41
0.0
 71
     7
 72
     1
  1
- * number of crimps: 1\P- assembly instructions see catalogue\P- crimp zone according to DIN 46235; indicator MK 20\P- for stranded wire according to IEC 60228 class 5\P- stripping lenght: 24 mm
  7
CONVERTER_15
 73
     1
 44
1.20048019207683
  0
DIMENSION
  5
19B
330
1F
100
AcDbEntity
  8
1
100
AcDbDimension
  2
*D3
 10
-738.2500000000002
 20
49.49999999999987
 30
0.0
 11
-739.9000000000002
 21
56.50000000000058
 31
0.0
 70
    33
  1
crimp zone
 71
     5
 42
-1.0
 53
-89.99999999999675
  3
ME10_DIM_10
100
AcDbAlignedDimension
 13
-740.2500000000007
 23
63.50000000000129
 33
0.0
 14
-740.2499999999999
 24
49.49999999999987
 34
0.0
  0
DIMENSION
  5
1A6
330
1F
100
AcDbEntity
  8
1
100
AcDbDimension
  2
*D4
 10
-765.249999999999
 20
49.49999999999987
 30
0.0
 11
-766.999999999999
 21
56.49999999999987
 31
0.0
 70
    33
  1
<>
 71
     5
 42
-1.0
 53
-89.99999999999628
  3
ME10_DIM_11
100
AcDbAlignedDimension
 13
-763.2500000000009
 23
63.49999999999987
 33
0.0
 14
-763.25
 24
49.49999999999987
 34
0.0
  0
DIMENSION
  5
1B3
330
1F
100
AcDbEntity
  8
1
100
AcDbDimension
  2
*D5
 10
-765.249999999999
 20
46.50000000000004
 30
0.0
 11
-766.999999999999
 21
41.96355398522477
 31
0.0
 70
    32
  1
<>
 71
     5
 42
-1.0
 53
90.0
  3
ME10_DIM_12
100
AcDbAlignedDimension
 13
-763.25
 23
49.49999999999987
 33
0.0
 14
-762.2499999999998
 24
46.50000000000004
 34
0.0
 50
90.0
100
AcDbRotatedDimension
  0
DIMENSION
  5
1BE
330
1F
100
AcDbEntity
  8
1
100
AcDbDimension
  2
*D6
 10
-796.2499999999999
 20
41.50000000000087
 30
0.0
 11
-785.7499999999999
 21
43.25000000000087
 31
0.0
 70
    33
  1
<>
 71
     5
 42
-1.0
 53
0.00013888888889
  3
ME10_DIM_13
100
AcDbAlignedDimension
 13
-775.2499999999999
 23
46.50000000000125
 33
0.0
 14
-796.2499999999999
 24
46.50000000000006
 34
0.0
  0
DIMENSION
  5
1C9
330
1F
100
AcDbEntity
  8
1
100
AcDbDimension
  2
*D7
 10
-759.4999999999998
 20
41.50000000000261
 30
0.0
 11
-751.7499999999998
 21
43.3250000000026
 31
0.0
 70
    33
  1
<>
 71
     5
 42
-1.0
 53
0.00013888888889
  3
ME10_DIM_14
100
AcDbAlignedDimension
 13
-743.9999999999998
 23
48.76794919243211
 33
0.0
 14
-759.4999999999998
 24
48.7679491924312
 34
0.0
  0
DIMENSION
  5
1D4
330
1F
100
AcDbEntity
  8
1
100
AcDbDimension
  2
*D8
 10
-801.2500000000017
 20
46.50000000000006
 30
0.0
 11
-803.0750000000018
 21
71.10000000000039
 31
0.0
 70
    32
  1
<>
 71
     5
 42
-1.0
 53
90.0
  3
ME10_DIM_15
100
AcDbAlignedDimension
 13
-789.6218091489408
 23
95.70000000000073
 33
0.0
 14
-796.2499999999999
 24
46.50000000000006
 34
0.0
 50
90.0
100
AcDbRotatedDimension
  0
DIMENSION
  5
1E0
330
1F
100
AcDbEntity
  8
1
100
AcDbDimension
  2
*D9
 10
-796.2500000000013
 20
77.70000000000162
 30
0.0
 11
-771.9747035193358
 21
79.45000000000162
 31
0.0
 70
    33
  1
<>
 71
     5
 42
-1.0
 53
0.00013888888889
  3
ME10_DIM_16
100
AcDbAlignedDimension
 13
-775.2500000000013
 23
72.70000000000135
 33
0.0
 14
-796.2500000000013
 24
72.70000000000016
 34
0.0
  0
DIMENSION
  5
1EB
330
1F
100
AcDbEntity
  8
1
100
AcDbDimension
  2
*D10
 10
-733.2500000000007
 20
46.50000000000112
 30
0.0
 11
-735.0000000000007
 21
58.50000000000106
 31
0.0
 70
    32
  1
<>
 71
     5
 42
-1.0
 53
90.0
  3
ME10_DIM_17
100
AcDbAlignedDimension
 13
-744.0000000000009
 23
70.500000000001
 33
0.0
 14
-741.2499999999998
 24
46.50000000000112
 34
0.0
 50
90.0
100
AcDbRotatedDimension
  0
DIMENSION
  5
1F8
330
1F
100
AcDbEntity
  8
1
100
AcDbDimension
  2
*D11
 10
-738.2500000000027
 20
95.70000000000081
 30
0.0
 11
-740.0750000000028
 21
89.5500000000009
 31
0.0
 70
    32
  1
<>
 71
     5
 42
-1.0
 53
90.0
  3
ME10_DIM_18
100
AcDbAlignedDimension
 13
-747.0000000000023
 23
92.20000000000098
 33
0.0
 14
-747.8784560015386
 24
95.70000000000081
 34
0.0
 50
90.0
100
AcDbRotatedDimension
  0
DIMENSION
  5
203
330
1F
100
AcDbEntity
  8
1
100
AcDbDimension
  2
*D12
 10
-756.5001325752396
 20
100.7000000000008
 30
0.0
 11
-751.7501325752395
 21
102.5250000000008
 31
0.0
 70
    33
  1
<>
 71
     5
 42
-1.0
 53
0.00013888888889
  3
ME10_DIM_19
100
AcDbAlignedDimension
 13
-747.0001325752394
 23
93.90000000000069
 33
0.0
 14
-756.5001325752396
 24
93.90000000000052
 34
0.0
  0
HATCH
  5
204
330
1F
100
AcDbEntity
  8
1
  6
Continuous
 62
     2
100
AcDbHatch
 10
0.0
 20
0.0
 30
0.0
210
0.0
220
0.0
230
1.0
  2
_USER
 70
     0
 71
     1
 91
        1
 92
        1
 93
       21
 72
     1
 10
-741.2500000000011
 20
72.70000000000121
 11
-741.2500000000009
 21
69.50000000000122
 72
     1
 10
-741.2500000000009
 20
69.50000000000122
 11
-742.0500000000011
 21
69.50000000000111
 72
     2
 10
-742.0500000000011
 20
69.30000000000112
 40
0.1999999999999886
 50
90.0
 51
180.0
 73
     1
 72
     1
 10
-742.2500000000009
 20
69.30000000000112
 11
-742.2500000000009
 21
65.90000000000109
 72
     1
 10
-742.2500000000009
 20
65.90000000000109
 11
-741.2500000000007
 21
64.1679491924323
 72
     1
 10
-741.2500000000007
 20
64.1679491924323
 11
-741.2499999999998
 21
46.50000000000112
 72
     1
 10
-741.2499999999998
 20
46.50000000000112
 11
-742.9999999999998
 21
46.50000000000112
 72
     1
 10
-742.9999999999998
 20
46.50000000000112
 11
-743.7320508075686
 21
47.76794919243211
 72
     2
 10
-741.9999999999998
 20
48.76794919243222
 40
2.0
 50
149.9999999999968
 51
179.9999999999969
 73
     0
 72
     1
 10
-743.9999999999998
 20
48.76794919243211
 11
-744.0000000000009
 21
70.500000000001
 72
     1
 10
-744.0000000000009
 20
70.500000000001
 11
-751.7500000000011
 21
72.9435656138127
 72
     1
 10
-751.7500000000011
 20
72.9435656138127
 11
-759.5000000000009
 21
70.50000000000009
 72
     1
 10
-759.5000000000009
 20
70.50000000000009
 11
-759.5000000000009
 21
69.00000000000048
 72
     1
 10
-759.5000000000009
 20
69.00000000000048
 11
-761.2500000000009
 21
69.00000000000043
 72
     1
 10
-761.2500000000009
 20
69.00000000000043
 11
-761.2500000000009
 21
69.29999999999998
 72
     2
 10
-761.450000000001
 20
69.29999999999998
 40
0.2000000000000455
 50
0.0
 51
90.0
 73
     1
 72
     1
 10
-761.450000000001
 20
69.50000000000003
 11
-762.2500000000009
 21
69.50000000000003
 72
     1
 10
-762.2500000000009
 20
69.50000000000003
 11
-762.2500000000011
 21
72.70000000000002
 72
     1
 10
-762.2500000000011
 20
72.70000000000002
 11
-757.2411809548987
 21
74.0421090181691
 72
     1
 10
-757.2411809548987
 20
74.0421090181691
 11
-746.2588190451038
 21
74.04210901816973
 72
     1
 10
-746.2588190451038
 20
74.04210901816973
 11
-741.2500000000011
 21
72.70000000000121
 97
       21
330
116
330
117
330
154
330
118
330
115
330
119
330
10D
330
113
330
152
330
11A
330
131
330
134
330
12C
330
12F
330
128
330
15C
330
12A
330
12B
330
132
330
126
330
133
 75
     1
 76
     0
 52
45.0
 41
1.5
 77
     0
 78
     1
 53
45.0
 43
0.0
 44
0.0
 45
-1.060660171779821
 46
1.060660171779821
 79
     0
 98
        1
 10
0.0
 20
0.0
  0
HATCH
  5
205
330
1F
100
AcDbEntity
  8
1
  6
Continuous
 62
     2
100
AcDbHatch
 10
0.0
 20
0.0
 30
0.0
210
0.0
220
0.0
230
1.0
  2
_USER
 70
     0
 71
     1
 91
        1
 92
        1
 93
        8
 72
     1
 10
-759.5000000000009
 20
67.00000000000048
 11
-759.4999999999998
 21
48.7679491924312
 72
     2
 10
-761.4999999999998
 20
48.76794919243114
 40
1.999999999999935
 50
359.9999999999982
 51
389.9999999999989
 73
     0
 72
     1
 10
-759.7679491924309
 20
47.7679491924312
 11
-760.4999999999998
 21
46.50000000000004
 72
     1
 10
-760.4999999999998
 20
46.50000000000004
 11
-762.2499999999998
 21
46.50000000000004
 72
     1
 10
-762.2499999999998
 20
46.50000000000004
 11
-762.2500000000009
 21
64.16794919243111
 72
     1
 10
-762.2500000000009
 20
64.16794919243111
 11
-761.2500000000009
 21
65.9
 72
     1
 10
-761.2500000000009
 20
65.9
 11
-761.2500000000009
 21
67.00000000000043
 72
     1
 10
-761.2500000000009
 20
67.00000000000043
 11
-759.5000000000009
 21
67.00000000000048
 97
        8
330
12D
330
151
330
111
330
110
330
114
330
130
330
129
330
12E
 75
     1
 76
     0
 52
45.0
 41
1.5
 77
     0
 78
     1
 53
45.0
 43
0.0
 44
0.0
 45
-1.060660171779821
 46
1.060660171779821
 79
     0
 98
        1
 10
0.0
 20
0.0
  0
ENDSEC
  0
SECTION
  2
OBJECTS
  0
DICTIONARY
  5
C
330
0
100
AcDbDictionary
281
     1
  3
ACAD_GROUP
350
D
  3
ACAD_LAYOUT
350
1A
  3
ACAD_MATERIAL
350
43
  3
ACAD_MLEADERSTYLE
350
6B
  3
ACAD_MLINESTYLE
350
17
  3
ACAD_PLOTSETTINGS
350
19
  3
ACAD_PLOTSTYLENAME
350
E
  3
ACAD_SCALELIST
350
47
  3
ACAD_TABLESTYLE
350
69
  3
ACAD_VISUALSTYLE
350
2A
  3
AcDbVariableDictionary
350
206
  0
DICTIONARY
  5
20D
330
8
100
AcDbDictionary
280
     1
281
     1
  3
ACAD_XREC_ROUNDTRIP
360
20E
  0
DICTIONARY
  5
D
102
{ACAD_REACTORS
330
C
102
}
330
C
100
AcDbDictionary
281
     1
  0
DICTIONARY
  5
1A
102
{ACAD_REACTORS
330
C
102
}
330
C
100
AcDbDictionary
281
     1
  3
Layout1
350
1E
  3
Layout2
350
26
  3
Model
350
22
  0
DICTIONARY
  5
43
102
{ACAD_REACTORS
330
C
102
}
330
C
100
AcDbDictionary
281
     1
  3
ByBlock
350
45
  3
ByLayer
350
44
  3
Global
350
46
  0
DICTIONARY
  5
6B
102
{ACAD_REACTORS
330
C
102
}
330
C
100
AcDbDictionary
281
     1
  3
Standard
350
6C
  0
DICTIONARY
  5
17
102
{ACAD_REACTORS
330
C
102
}
330
C
100
AcDbDictionary
281
     1
  3
Standard
350
18
  0
DICTIONARY
  5
19
102
{ACAD_REACTORS
330
C
102
}
330
C
100
AcDbDictionary
281
     1
  0
ACDBDICTIONARYWDFLT
  5
E
102
{ACAD_REACTORS
330
C
102
}
330
C
100
AcDbDictionary
281
     1
  3
Normal
350
F
100
AcDbDictionaryWithDefault
340
F
  0
DICTIONARY
  5
47
102
{ACAD_REACTORS
330
C
102
}
330
C
100
AcDbDictionary
281
     1
  3
A0
350
48
  3
A1
350
49
  3
A2
350
4A
  3
A3
350
4B
  3
A4
350
4C
  3
A5
350
4D
  3
A6
350
4E
  3
A7
350
4F
  3
A8
350
50
  3
A9
350
51
  3
B0
350
52
  3
B1
350
53
  3
B2
350
54
  3
B3
350
55
  3
B4
350
56
  3
B5
350
57
  3
B6
350
58
  3
B7
350
59
  3
B8
350
5A
  3
B9
350
5B
  3
C0
350
5C
  3
C1
350
5D
  3
C2
350
5E
  3
C3
350
5F
  3
C4
350
60
  3
C5
350
61
  3
C6
350
62
  3
C7
350
63
  3
C8
350
64
  3
C9
350
65
  3
D0
350
66
  3
D1
350
67
  3
D2
350
68
  0
DICTIONARY
  5
69
102
{ACAD_REACTORS
330
C
102
}
330
C
100
AcDbDictionary
281
     1
  3
Standard
350
6A
  0
DICTIONARY
  5
2A
102
{ACAD_REACTORS
330
C
102
}
330
C
100
AcDbDictionary
281
     1
  3
2dWireframe
350
2F
  3
Basic
350
32
  3
Brighten
350
36
  3
ColorChange
350
3A
  3
Conceptual
350
34
  3
Dim
350
35
  3
EdgeColorOff
350
3D
  3
Facepattern
350
39
  3
Flat
350
2B
  3
FlatWithEdges
350
2C
  3
Gouraud
350
2D
  3
GouraudWithEdges
350
2E
  3
Hidden
350
31
  3
JitterOff
350
3B
  3
Linepattern
350
38
  3
OverhangOff
350
3C
  3
Realistic
350
33
  3
Shaded
350
42
  3
Shaded with edges
350
41
  3
Shades of Gray
350
3E
  3
Sketchy
350
3F
  3
Thicken
350
37
  3
Wireframe
350
30
  3
X-Ray
350
40
  0
DICTIONARY
  5
206
102
{ACAD_REACTORS
330
C
102
}
330
C
100
AcDbDictionary
281
     1
  3
CANNOSCALE
350
20F
  3
CMLEADERSTYLE
350
208
  3
CTABLESTYLE
350
207
  3
DIMASSOC
350
20B
  3
HIDETEXT
350
20C
  3
MSLTSCALE
350
210
  0
XRECORD
  5
20E
102
{ACAD_REACTORS
330
20D
102
}
330
20D
100
AcDbXrecord
280
     1
102
VTR_0.000_0.000_1.000_1.000_VISUALSTYLE
340
2F
102
VTR_0.000_0.000_1.000_1.000_GRIDDISPLAY
 70
     3
102
VTR_0.000_0.000_1.000_1.000_GRIDMAJOR
 70
     5
102
VTR_0.000_0.000_1.000_1.000_DEFAULTLIGHTING
280
     1
102
VTR_0.000_0.000_1.000_1.000_DEFAULTLIGHTINGTYPE
 70
     1
102
VTR_0.000_0.000_1.000_1.000_BRIGHTNESS
141
0.0
102
VTR_0.000_0.000_1.000_1.000_CONTRAST
142
0.0
  0
LAYOUT
  5
1E
102
{ACAD_REACTORS
330
1A
102
}
330
1A
100
AcDbPlotSettings
  1

  2
none_device
  4

  6

 40
0.0
 41
0.0
 42
0.0
 43
0.0
 44
0.0
 45
0.0
 46
0.0
 47
0.0
 48
0.0
 49
0.0
140
0.0
141
0.0
142
1.0
143
1.0
 70
   688
 72
     0
 73
     0
 74
     5
  7

 75
    16
147
1.0
148
0.0
149
0.0
100
AcDbLayout
  1
Layout1
 70
     1
 71
     1
 10
0.0
 20
0.0
 11
12.0
 21
9.0
 12
0.0
 22
0.0
 32
0.0
 14
1.00000000000000E+20
 24
1.00000000000000E+20
 34
1.00000000000000E+20
 15
-1.00000000000000E+20
 25
-1.00000000000000E+20
 35
-1.00000000000000E+20
146
0.0
 13
0.0
 23
0.0
 33
0.0
 16
1.0
 26
0.0
 36
0.0
 17
0.0
 27
1.0
 37
0.0
 76
     0
330
1B
  0
LAYOUT
  5
26
102
{ACAD_REACTORS
330
1A
102
}
330
1A
100
AcDbPlotSettings
  1

  2
none_device
  4

  6

 40
0.0
 41
0.0
 42
0.0
 43
0.0
 44
0.0
 45
0.0
 46
0.0
 47
0.0
 48
0.0
 49
0.0
140
0.0
141
0.0
142
1.0
143
1.0
 70
   688
 72
     0
 73
     0
 74
     5
  7

 75
    16
147
1.0
148
0.0
149
0.0
100
AcDbLayout
  1
Layout2
 70
     1
 71
     2
 10
0.0
 20
0.0
 11
0.0
 21
0.0
 12
0.0
 22
0.0
 32
0.0
 14
0.0
 24
0.0
 34
0.0
 15
0.0
 25
0.0
 35
0.0
146
0.0
 13
0.0
 23
0.0
 33
0.0
 16
1.0
 26
0.0
 36
0.0
 17
0.0
 27
1.0
 37
0.0
 76
     0
330
23
  0
LAYOUT
  5
22
102
{ACAD_REACTORS
330
1A
102
}
330
1A
100
AcDbPlotSettings
  1

  2
none_device
  4
Letter_(8.50_x_11.00_Inches)
  6

 40
6.35
 41
6.35
 42
6.35000508
 43
6.35000508
 44
215.9
 45
279.4
 46
0.0
 47
0.0
 48
0.0
 49
0.0
140
0.0
141
0.0
142
1.0
143
1.0
 70
  1712
 72
     0
 73
     0
 74
     0
  7

 75
     0
147
1.0
148
0.0
149
0.0
100
AcDbLayout
  1
Model
 70
     1
 71
     0
 10
0.0
 20
0.0
 11
12.0
 21
9.0
 12
0.0
 22
0.0
 32
0.0
 14
-825.0
 24
0.0
 34
0.0
 15
-720.0
 25
148.5000000000001
 35
0.0
146
0.0
 13
0.0
 23
0.0
 33
0.0
 16
1.0
 26
0.0
 36
0.0
 17
0.0
 27
1.0
 37
0.0
 76
     0
330
1F
331
29
  0
MATERIAL
  5
45
102
{ACAD_REACTORS
330
43
102
}
102
{ACAD_XDICTIONARY
360
243
102
}
330
43
100
AcDbMaterial
  1
ByBlock
  0
MATERIAL
  5
44
102
{ACAD_REACTORS
330
43
102
}
102
{ACAD_XDICTIONARY
360
241
102
}
330
43
100
AcDbMaterial
  1
ByLayer
  0
MATERIAL
  5
46
102
{ACAD_REACTORS
330
43
102
}
102
{ACAD_XDICTIONARY
360
245
102
}
330
43
100
AcDbMaterial
  1
Global
  0
MLEADERSTYLE
  5
6C
102
{ACAD_REACTORS
330
6B
102
}
102
{ACAD_XDICTIONARY
360
248
102
}
330
6B
100
AcDbMLeaderStyle
170
     2
171
     1
172
     0
 90
        2
 40
0.0
 41
0.0
173
     1
 91
-1056964608
340
14
 92
       -2
290
     1
 42
0.09
291
     1
 43
0.36
  3
Standard
341
0
 44
0.18
300

342
11
174
     1
178
     6
175
     1
176
     0
 93
-1056964608
 45
0.18
292
     0
297
     0
 46
0.18
343
0
 94
-1056964608
 47
1.0
 49
1.0
140
1.0
293
     1
141
0.0
294
     1
177
     0
142
1.0
295
     0
296
     0
143
0.125
1001
ACAD_MLEADERVER
1070
     2
  0
MLINESTYLE
  5
18
102
{ACAD_REACTORS
330
17
102
}
330
17
100
AcDbMlineStyle
  2
Standard
 70
     0
  3

 62
   256
 51
90.0
 52
90.0
 71
     2
 49
0.5
 62
   256
  6
BYLAYER
 49
-0.5
 62
   256
  6
BYLAYER
  0
ACDBPLACEHOLDER
  5
F
102
{ACAD_REACTORS
330
E
102
}
330
E
  0
SCALE
  5
48
102
{ACAD_REACTORS
330
47
102
}
330
47
100
AcDbScale
 70
     0
300
1:1
140
1.0
141
1.0
290
     1
  0
SCALE
  5
49
102
{ACAD_REACTORS
330
47
102
}
330
47
100
AcDbScale
 70
     0
300
1:2
140
1.0
141
2.0
290
     0
  0
SCALE
  5
4A
102
{ACAD_REACTORS
330
47
102
}
330
47
100
AcDbScale
 70
     0
300
1:4
140
1.0
141
4.0
290
     0
  0
SCALE
  5
4B
102
{ACAD_REACTORS
330
47
102
}
330
47
100
AcDbScale
 70
     0
300
1:5
140
1.0
141
5.0
290
     0
  0
SCALE
  5
4C
102
{ACAD_REACTORS
330
47
102
}
330
47
100
AcDbScale
 70
     0
300
1:8
140
1.0
141
8.0
290
     0
  0
SCALE
  5
4D
102
{ACAD_REACTORS
330
47
102
}
330
47
100
AcDbScale
 70
     0
300
1:10
140
1.0
141
10.0
290
     0
  0
SCALE
  5
4E
102
{ACAD_REACTORS
330
47
102
}
330
47
100
AcDbScale
 70
     0
300
1:16
140
1.0
141
16.0
290
     0
  0
SCALE
  5
4F
102
{ACAD_REACTORS
330
47
102
}
330
47
100
AcDbScale
 70
     0
300
1:20
140
1.0
141
20.0
290
     0
  0
SCALE
  5
50
102
{ACAD_REACTORS
330
47
102
}
330
47
100
AcDbScale
 70
     0
300
1:30
140
1.0
141
30.0
290
     0
  0
SCALE
  5
51
102
{ACAD_REACTORS
330
47
102
}
330
47
100
AcDbScale
 70
     0
300
1:40
140
1.0
141
40.0
290
     0
  0
SCALE
  5
52
102
{ACAD_REACTORS
330
47
102
}
330
47
100
AcDbScale
 70
     0
300
1:50
140
1.0
141
50.0
290
     0
  0
SCALE
  5
53
102
{ACAD_REACTORS
330
47
102
}
330
47
100
AcDbScale
 70
     0
300
1:100
140
1.0
141
100.0
290
     0
  0
SCALE
  5
54
102
{ACAD_REACTORS
330
47
102
}
330
47
100
AcDbScale
 70
     0
300
2:1
140
2.0
141
1.0
290
     0
  0
SCALE
  5
55
102
{ACAD_REACTORS
330
47
102
}
330
47
100
AcDbScale
 70
     0
300
4:1
140
4.0
141
1.0
290
     0
  0
SCALE
  5
56
102
{ACAD_REACTORS
330
47
102
}
330
47
100
AcDbScale
 70
     0
300
8:1
140
8.0
141
1.0
290
     0
  0
SCALE
  5
57
102
{ACAD_REACTORS
330
47
102
}
330
47
100
AcDbScale
 70
     0
300
10:1
140
10.0
141
1.0
290
     0
  0
SCALE
  5
58
102
{ACAD_REACTORS
330
47
102
}
330
47
100
AcDbScale
 70
     0
300
100:1
140
100.0
141
1.0
290
     0
  0
SCALE
  5
59
102
{ACAD_REACTORS
330
47
102
}
330
47
100
AcDbScale
 70
     0
300
1/128" = 1'-0"
140
0.0078125
141
12.0
290
     0
  0
SCALE
  5
5A
102
{ACAD_REACTORS
330
47
102
}
330
47
100
AcDbScale
 70
     0
300
1/64" = 1'-0"
140
0.015625
141
12.0
290
     0
  0
SCALE
  5
5B
102
{ACAD_REACTORS
330
47
102
}
330
47
100
AcDbScale
 70
     0
300
1/32" = 1'-0"
140
0.03125
141
12.0
290
     0
  0
SCALE
  5
5C
102
{ACAD_REACTORS
330
47
102
}
330
47
100
AcDbScale
 70
     0
300
1/16" = 1'-0"
140
0.0625
141
12.0
290
     0
  0
SCALE
  5
5D
102
{ACAD_REACTORS
330
47
102
}
330
47
100
AcDbScale
 70
     0
300
3/32" = 1'-0"
140
0.09375
141
12.0
290
     0
  0
SCALE
  5
5E
102
{ACAD_REACTORS
330
47
102
}
330
47
100
AcDbScale
 70
     0
300
1/8" = 1'-0"
140
0.125
141
12.0
290
     0
  0
SCALE
  5
5F
102
{ACAD_REACTORS
330
47
102
}
330
47
100
AcDbScale
 70
     0
300
3/16" = 1'-0"
140
0.1875
141
12.0
290
     0
  0
SCALE
  5
60
102
{ACAD_REACTORS
330
47
102
}
330
47
100
AcDbScale
 70
     0
300
1/4" = 1'-0"
140
0.25
141
12.0
290
     0
  0
SCALE
  5
61
102
{ACAD_REACTORS
330
47
102
}
330
47
100
AcDbScale
 70
     0
300
3/8" = 1'-0"
140
0.375
141
12.0
290
     0
  0
SCALE
  5
62
102
{ACAD_REACTORS
330
47
102
}
330
47
100
AcDbScale
 70
     0
300
1/2" = 1'-0"
140
0.5
141
12.0
290
     0
  0
SCALE
  5
63
102
{ACAD_REACTORS
330
47
102
}
330
47
100
AcDbScale
 70
     0
300
3/4" = 1'-0"
140
0.75
141
12.0
290
     0
  0
SCALE
  5
64
102
{ACAD_REACTORS
330
47
102
}
330
47
100
AcDbScale
 70
     0
300
1" = 1'-0"
140
1.0
141
12.0
290
     0
  0
SCALE
  5
65
102
{ACAD_REACTORS
330
47
102
}
330
47
100
AcDbScale
 70
     0
300
1-1/2" = 1'-0"
140
1.5
141
12.0
290
     0
  0
SCALE
  5
66
102
{ACAD_REACTORS
330
47
102
}
330
47
100
AcDbScale
 70
     0
300
3" = 1'-0"
140
3.0
141
12.0
290
     0
  0
SCALE
  5
67
102
{ACAD_REACTORS
330
47
102
}
330
47
100
AcDbScale
 70
     0
300
6" = 1'-0"
140
6.0
141
12.0
290
     0
  0
SCALE
  5
68
102
{ACAD_REACTORS
330
47
102
}
330
47
100
AcDbScale
 70
     0
300
1'-0" = 1'-0"
140
12.0
141
12.0
290
     0
  0
TABLESTYLE
  5
6A
102
{ACAD_REACTORS
330
69
102
}
330
69
100
AcDbTableStyle
  3
Standard
 70
     0
 71
     0
 40
0.06
 41
0.06
280
     0
281
     0
  7
Standard
140
0.18
170
     2
 62
     0
 63
   257
283
     0
274
    -2
284
     1
 64
     0
275
    -2
285
     1
 65
     0
276
    -2
286
     1
 66
     0
277
    -2
287
     1
 67
     0
278
    -2
288
     1
 68
     0
279
    -2
289
     1
 69
     0
  7
Standard
140
0.25
170
     5
 62
     0
 63
   257
283
     0
274
    -2
284
     1
 64
     0
275
    -2
285
     1
 65
     0
276
    -2
286
     1
 66
     0
277
    -2
287
     1
 67
     0
278
    -2
288
     1
 68
     0
279
    -2
289
     1
 69
     0
  7
Standard
140
0.18
170
     5
 62
     0
 63
   257
283
     0
274
    -2
284
     1
 64
     0
275
    -2
285
     1
 65
     0
276
    -2
286
     1
 66
     0
277
    -2
287
     1
 67
     0
278
    -2
288
     1
 68
     0
279
    -2
289
     1
 69
     0
  0
VISUALSTYLE
  5
2F
102
{ACAD_REACTORS
330
2A
102
}
102
{ACAD_XDICTIONARY
360
219
102
}
330
2A
100
AcDbVisualStyle
  2
2dWireframe
 70
     4
 71
     0
 72
     2
 73
     0
 90
        0
 40
0.6
 41
30.0
 62
     5
 63
     7
 74
     1
 91
        4
 64
     7
 65
   257
 75
     1
175
     1
 42
1.0
 92
        0
 66
   257
 43
1.0
 76
     1
 77
     6
 78
     2
 67
     7
 79
     5
170
     0
171
     0
290
     0
174
     0
 93
        1
 44
0.0
173
     0
291
     0
 45
0.0
1001
ACAD
1000
AcDbSavedByObjectVersion
1070
     0
  0
VISUALSTYLE
  5
32
102
{ACAD_REACTORS
330
2A
102
}
102
{ACAD_XDICTIONARY
360
21F
102
}
330
2A
100
AcDbVisualStyle
  2
Basic
 70
     7
 71
     1
 72
     0
 73
     1
 90
        0
 40
0.6
 41
30.0
 62
     5
 63
     7
 74
     0
 91
        4
 64
     7
 65
   257
 75
     1
175
     1
 42
1.0
 92
        8
 66
     7
 43
1.0
 76
     1
 77
     6
 78
     2
 67
     7
 79
     5
170
     0
171
     0
290
     0
174
     0
 93
        1
 44
0.0
173
     0
291
     1
 45
0.0
1001
ACAD
1000
AcDbSavedByObjectVersion
1070
     0
  0
VISUALSTYLE
  5
36
102
{ACAD_REACTORS
330
2A
102
}
102
{ACAD_XDICTIONARY
360
227
102
}
330
2A
100
AcDbVisualStyle
  2
Brighten
 70
    12
 71
     2
 72
     2
 73
     0
 90
        0
 40
0.6
 41
30.0
 62
     5
 63
     7
 74
     1
 91
        4
 64
     7
 65
   257
 75
     1
175
     1
 42
1.0
 92
        8
 66
     7
 43
1.0
 76
     1
 77
     6
 78
     2
 67
     7
 79
     5
170
     0
171
     0
290
     0
174
     0
 93
        1
 44
50.0
173
     0
291
     1
 45
0.0
1001
ACAD
1000
AcDbSavedByObjectVersion
1070
     0
  0
VISUALSTYLE
  5
3A
102
{ACAD_REACTORS
330
2A
102
}
102
{ACAD_XDICTIONARY
360
22F
102
}
330
2A
100
AcDbVisualStyle
  2
ColorChange
 70
    16
 71
     2
 72
     2
 73
     3
 90
        0
 40
0.6
 41
30.0
 62
     5
 63
     8
 74
     1
 91
        4
 64
     7
 65
   257
 75
     1
175
     1
 42
1.0
 92
        8
 66
     8
 43
1.0
 76
     1
 77
     6
 78
     2
 67
     7
 79
     5
170
     0
171
     0
290
     0
174
     0
 93
        1
 44
0.0
173
     0
291
     1
 45
0.0
1001
ACAD
1000
AcDbSavedByObjectVersion
1070
     0
  0
VISUALSTYLE
  5
34
102
{ACAD_REACTORS
330
2A
102
}
102
{ACAD_XDICTIONARY
360
223
102
}
330
2A
100
AcDbVisualStyle
  2
Conceptual
 70
     9
 71
     3
 72
     2
 73
     0
 90
        0
 40
0.6
 41
30.0
 62
     5
 63
     7
 74
     2
 91
        2
 64
     7
 65
   257
 75
     1
175
     1
 42
179.0
 92
        8
 66
     7
 43
1.0
 76
     1
 77
     6
 78
     2
 67
     7
 79
     3
170
     0
171
     0
290
     0
174
     0
 93
        1
 44
0.0
173
     0
291
     0
 45
0.0
1001
ACAD
1000
AcDbSavedByObjectVersion
1070
     0
  0
VISUALSTYLE
  5
35
102
{ACAD_REACTORS
330
2A
102
}
102
{ACAD_XDICTIONARY
360
225
102
}
330
2A
100
AcDbVisualStyle
  2
Dim
 70
    11
 71
     2
 72
     2
 73
     0
 90
        0
 40
0.6
 41
30.0
 62
     5
 63
     7
 74
     1
 91
        4
 64
     7
 65
   257
 75
     1
175
     1
 42
1.0
 92
        8
 66
     7
 43
1.0
 76
     1
 77
     6
 78
     2
 67
     7
 79
     5
170
     0
171
     0
290
     0
174
     0
 93
        1
 44
-50.0
173
     0
291
     1
 45
0.0
1001
ACAD
1000
AcDbSavedByObjectVersion
1070
     0
  0
VISUALSTYLE
  5
3D
102
{ACAD_REACTORS
330
2A
102
}
102
{ACAD_XDICTIONARY
360
235
102
}
330
2A
100
AcDbVisualStyle
  2
EdgeColorOff
 70
    22
 71
     2
 72
     2
 73
     0
 90
        0
 40
0.6
 41
30.0
 62
     5
 63
     7
 74
     1
 91
        4
 64
     7
 65
   257
 75
     1
175
     1
 42
1.0
 92
        8
 66
     7
 43
1.0
 76
     1
 77
     6
 78
     2
 67
     7
 79
     5
170
     0
171
     0
290
     0
174
     0
 93
        1
 44
0.0
173
     0
291
     1
 45
0.0
1001
ACAD
1000
AcDbSavedByObjectVersion
1070
     0
  0
VISUALSTYLE
  5
39
102
{ACAD_REACTORS
330
2A
102
}
102
{ACAD_XDICTIONARY
360
22D
102
}
330
2A
100
AcDbVisualStyle
  2
Facepattern
 70
    15
 71
     2
 72
     2
 73
     0
 90
        0
 40
0.6
 41
30.0
 62
     5
 63
     7
 74
     1
 91
        4
 64
     7
 65
   257
 75
     1
175
     1
 42
1.0
 92
        8
 66
     7
 43
1.0
 76
     1
 77
     6
 78
     2
 67
     7
 79
     5
170
     0
171
     0
290
     0
174
     0
 93
        1
 44
0.0
173
     0
291
     1
 45
0.0
1001
ACAD
1000
AcDbSavedByObjectVersion
1070
     0
  0
VISUALSTYLE
  5
2B
102
{ACAD_REACTORS
330
2A
102
}
102
{ACAD_XDICTIONARY
360
211
102
}
330
2A
100
AcDbVisualStyle
  2
Flat
 70
     0
 71
     2
 72
     1
 73
     1
 90
        2
 40
0.6
 41
30.0
 62
     5
 63
     7
 74
     0
 91
        0
 64
     7
 65
   257
 75
     1
175
     1
 42
1.0
 92
        8
 66
     7
 43
1.0
 76
     1
 77
     6
 78
     2
 67
     7
 79
     5
170
     0
171
     0
290
     0
174
     0
 93
       13
 44
0.0
173
     0
291
     1
 45
0.0
1001
ACAD
1000
AcDbSavedByObjectVersion
1070
     0
  0
VISUALSTYLE
  5
2C
102
{ACAD_REACTORS
330
2A
102
}
102
{ACAD_XDICTIONARY
360
213
102
}
330
2A
100
AcDbVisualStyle
  2
FlatWithEdges
 70
     1
 71
     2
 72
     1
 73
     1
 90
        2
 40
0.6
 41
30.0
 62
     5
 63
     7
 74
     1
 91
        0
 64
     7
 65
   257
 75
     1
175
     1
 42
1.0
 92
        0
 66
   257
 43
1.0
 76
     1
 77
     6
 78
     2
 67
     7
 79
     5
170
     0
171
     0
290
     0
174
     0
 93
       13
 44
0.0
173
     0
291
     1
 45
0.0
1001
ACAD
1000
AcDbSavedByObjectVersion
1070
     0
  0
VISUALSTYLE
  5
2D
102
{ACAD_REACTORS
330
2A
102
}
102
{ACAD_XDICTIONARY
360
215
102
}
330
2A
100
AcDbVisualStyle
  2
Gouraud
 70
     2
 71
     2
 72
     2
 73
     1
 90
        2
 40
0.6
 41
30.0
 62
     5
 63
     7
 74
     0
 91
        0
 64
     7
 65
   257
 75
     1
175
     1
 42
1.0
 92
        0
 66
     7
 43
1.0
 76
     1
 77
     6
 78
     2
 67
     7
 79
     5
170
     0
171
     0
290
     0
174
     0
 93
       13
 44
0.0
173
     0
291
     1
 45
0.0
1001
ACAD
1000
AcDbSavedByObjectVersion
1070
     0
  0
VISUALSTYLE
  5
2E
102
{ACAD_REACTORS
330
2A
102
}
102
{ACAD_XDICTIONARY
360
217
102
}
330
2A
100
AcDbVisualStyle
  2
GouraudWithEdges
 70
     3
 71
     2
 72
     2
 73
     1
 90
        2
 40
0.6
 41
30.0
 62
     5
 63
     7
 74
     1
 91
        0
 64
     7
 65
   257
 75
     1
175
     1
 42
1.0
 92
        0
 66
   257
 43
1.0
 76
     1
 77
     6
 78
     2
 67
     7
 79
     5
170
     0
171
     0
290
     0
174
     0
 93
       13
 44
0.0
173
     0
291
     1
 45
0.0
1001
ACAD
1000
AcDbSavedByObjectVersion
1070
     0
  0
VISUALSTYLE
  5
31
102
{ACAD_REACTORS
330
2A
102
}
102
{ACAD_XDICTIONARY
360
21D
102
}
330
2A
100
AcDbVisualStyle
  2
Hidden
 70
     6
 71
     1
 72
     2
 73
     2
 90
        0
 40
0.6
 41
30.0
 62
     5
 63
     7
 74
     2
 91
        2
 64
     7
 65
   257
 75
     2
175
     1
 42
40.0
 92
        0
 66
   257
 43
1.0
 76
     1
 77
     6
 78
     2
 67
     7
 79
     3
170
     0
171
     0
290
     0
174
     0
 93
        1
 44
0.0
173
     0
291
     0
 45
0.0
1001
ACAD
1000
AcDbSavedByObjectVersion
1070
     0
  0
VISUALSTYLE
  5
3B
102
{ACAD_REACTORS
330
2A
102
}
102
{ACAD_XDICTIONARY
360
231
102
}
330
2A
100
AcDbVisualStyle
  2
JitterOff
 70
    20
 71
     2
 72
     2
 73
     0
 90
        0
 40
0.6
 41
30.0
 62
     5
 63
     7
 74
     1
 91
        4
 64
     7
 65
   257
 75
     1
175
     1
 42
1.0
 92
       10
 66
     7
 43
1.0
 76
     1
 77
     6
 78
     2
 67
     7
 79
     5
170
     0
171
     0
290
     0
174
     0
 93
        1
 44
0.0
173
     0
291
     1
 45
0.0
1001
ACAD
1000
AcDbSavedByObjectVersion
1070
     0
  0
VISUALSTYLE
  5
38
102
{ACAD_REACTORS
330
2A
102
}
102
{ACAD_XDICTIONARY
360
22B
102
}
330
2A
100
AcDbVisualStyle
  2
Linepattern
 70
    14
 71
     2
 72
     2
 73
     0
 90
        0
 40
0.6
 41
30.0
 62
     5
 63
     7
 74
     1
 91
        4
 64
     7
 65
   257
 75
     7
175
     7
 42
1.0
 92
        8
 66
     7
 43
1.0
 76
     1
 77
     6
 78
     2
 67
     7
 79
     5
170
     0
171
     0
290
     0
174
     0
 93
        1
 44
0.0
173
     0
291
     1
 45
0.0
1001
ACAD
1000
AcDbSavedByObjectVersion
1070
     0
  0
VISUALSTYLE
  5
3C
102
{ACAD_REACTORS
330
2A
102
}
102
{ACAD_XDICTIONARY
360
233
102
}
330
2A
100
AcDbVisualStyle
  2
OverhangOff
 70
    21
 71
     2
 72
     2
 73
     0
 90
        0
 40
0.6
 41
30.0
 62
     5
 63
     7
 74
     1
 91
        4
 64
     7
 65
   257
 75
     1
175
     1
 42
1.0
 92
        9
 66
     7
 43
1.0
 76
     1
 77
     6
 78
     2
 67
     7
 79
     5
170
     0
171
     0
290
     0
174
     0
 93
        1
 44
0.0
173
     0
291
     1
 45
0.0
1001
ACAD
1000
AcDbSavedByObjectVersion
1070
     0
  0
VISUALSTYLE
  5
33
102
{ACAD_REACTORS
330
2A
102
}
102
{ACAD_XDICTIONARY
360
221
102
}
330
2A
100
AcDbVisualStyle
  2
Realistic
 70
     8
 71
     2
 72
     3
 73
     0
 90
        2
 40
0.6
 41
30.0
 62
     5
 63
     7
 74
     0
 91
        0
 64
     7
 65
   257
 75
     1
175
     1
 42
1.0
 92
        8
 66
   257
 43
1.0
 76
     1
 77
     6
 78
     2
 67
     7
 79
     3
170
     0
171
     0
290
     0
174
     0
 93
       13
 44
0.0
173
     0
291
     0
 45
0.0
1001
ACAD
1000
AcDbSavedByObjectVersion
1070
     0
  0
VISUALSTYLE
  5
42
102
{ACAD_REACTORS
330
2A
102
}
102
{ACAD_XDICTIONARY
360
23F
102
}
330
2A
100
AcDbVisualStyle
  2
Shaded
 70
    27
 71
     2
 72
     2
 73
     1
 90
        2
 40
0.6
 41
30.0
 62
     5
 63
     7
 74
     0
 91
        4
 64
     7
 65
   257
 75
     1
175
     1
 42
1.0
 92
        8
 66
   257
 43
1.0
 76
     1
 77
     6
 78
     2
 67
     8
 79
     3
170
     0
171
     0
290
     0
174
     0
 93
        5
 44
0.0
173
     0
291
     0
 45
0.0
1001
ACAD
1000
AcDbSavedByObjectVersion
1070
     0
  0
VISUALSTYLE
  5
41
102
{ACAD_REACTORS
330
2A
102
}
102
{ACAD_XDICTIONARY
360
23D
102
}
330
2A
100
AcDbVisualStyle
  2
Shaded with edges
 70
    26
 71
     2
 72
     2
 73
     1
 90
        2
 40
0.6
 41
30.0
 62
     5
 63
     7
 74
     1
 91
       10
 64
     7
 65
   257
 75
     2
175
     1
 42
1.0
 92
        8
 66
   257
 43
1.0
 76
     1
 77
     6
 78
     2
 67
     7
 79
     3
170
     0
171
     0
290
     0
174
     0
 93
        5
 44
0.0
173
     0
291
     0
 45
0.0
1001
ACAD
1000
AcDbSavedByObjectVersion
1070
     0
  0
VISUALSTYLE
  5
3E
102
{ACAD_REACTORS
330
2A
102
}
102
{ACAD_XDICTIONARY
360
237
102
}
330
2A
100
AcDbVisualStyle
  2
Shades of Gray
 70
    23
 71
     2
 72
     2
 73
     3
 90
        0
 40
0.6
 41
30.0
 62
     5
 63
     7
 74
     2
 91
        2
 64
     7
 65
     7
 75
     1
175
     1
 42
40.0
 92
        8
 66
     7
 43
1.0
 76
     1
 77
     6
 78
     2
 67
     7
 79
     3
170
     0
171
     0
290
     0
174
     0
 93
        1
 44
0.0
173
     0
291
     0
 45
0.0
1001
ACAD
1000
AcDbSavedByObjectVersion
1070
     0
  0
VISUALSTYLE
  5
3F
102
{ACAD_REACTORS
330
2A
102
}
102
{ACAD_XDICTIONARY
360
239
102
}
330
2A
100
AcDbVisualStyle
  2
Sketchy
 70
    24
 71
     1
 72
     2
 73
     2
 90
        0
 40
0.6
 41
30.0
 62
     5
 63
     7
 74
     2
 91
        2
 64
     7
 65
     7
 75
     1
175
     1
 42
40.0
 92
       11
 66
     7
 43
1.0
 76
     1
 77
     6
 78
     2
 67
     7
 79
     6
170
     0
171
     0
290
     0
174
     0
 93
        1
 44
0.0
173
     0
291
     0
 45
0.0
1001
ACAD
1000
AcDbSavedByObjectVersion
1070
     0
  0
VISUALSTYLE
  5
37
102
{ACAD_REACTORS
330
2A
102
}
102
{ACAD_XDICTIONARY
360
229
102
}
330
2A
100
AcDbVisualStyle
  2
Thicken
 70
    13
 71
     2
 72
     2
 73
     0
 90
        0
 40
0.6
 41
30.0
 62
     5
 63
     7
 74
     1
 91
        4
 64
     7
 65
   257
 75
     1
175
     1
 42
1.0
 92
       12
 66
     7
 43
1.0
 76
     1
 77
     6
 78
     2
 67
     7
 79
     5
170
     0
171
     0
290
     0
174
     0
 93
        1
 44
0.0
173
     0
291
     1
 45
0.0
1001
ACAD
1000
AcDbSavedByObjectVersion
1070
     0
  0
VISUALSTYLE
  5
30
102
{ACAD_REACTORS
330
2A
102
}
102
{ACAD_XDICTIONARY
360
21B
102
}
330
2A
100
AcDbVisualStyle
  2
Wireframe
 70
     5
 71
     0
 72
     2
 73
     0
 90
        0
 40
0.6
 41
30.0
 62
     5
 63
     7
 74
     1
 91
        4
 64
     7
 65
   257
 75
     1
175
     1
 42
1.0
 92
        0
 66
   257
 43
1.0
 76
     1
 77
     6
 78
     2
 67
     7
 79
     3
170
     0
171
     0
290
     0
174
     0
 93
        1
 44
0.0
173
     0
291
     0
 45
0.0
1001
ACAD
1000
AcDbSavedByObjectVersion
1070
     0
  0
VISUALSTYLE
  5
40
102
{ACAD_REACTORS
330
2A
102
}
102
{ACAD_XDICTIONARY
360
23B
102
}
330
2A
100
AcDbVisualStyle
  2
X-Ray
 70
    25
 71
     2
 72
     2
 73
     1
 90
        1
 40
0.5
 41
30.0
 62
     5
 63
     7
 74
     1
 91
        0
 64
     7
 65
   257
 75
     1
175
     1
 42
1.0
 92
        8
 66
     7
 43
1.0
 76
     1
 77
     6
 78
     2
 67
     7
 79
     3
170
     0
171
     0
290
     0
174
     0
 93
       13
 44
0.0
173
     0
291
     0
 45
0.0
1001
ACAD
1000
AcDbSavedByObjectVersion
1070
     0
  0
DICTIONARYVAR
  5
20F
102
{ACAD_REACTORS
330
206
102
}
330
206
100
DictionaryVariables
280
     0
  1
1:1
  0
DICTIONARYVAR
  5
208
102
{ACAD_REACTORS
330
206
102
}
330
206
100
DictionaryVariables
280
     0
  1
Standard
  0
DICTIONARYVAR
  5
207
102
{ACAD_REACTORS
330
206
102
}
330
206
100
DictionaryVariables
280
     0
  1
Standard
  0
DICTIONARYVAR
  5
20B
102
{ACAD_REACTORS
330
206
102
}
330
206
100
DictionaryVariables
280
     0
  1
2
  0
DICTIONARYVAR
  5
20C
102
{ACAD_REACTORS
330
206
102
}
330
206
100
DictionaryVariables
280
     0
  1
1
  0
DICTIONARYVAR
  5
210
102
{ACAD_REACTORS
330
206
102
}
330
206
100
DictionaryVariables
280
     0
  1
1
  0
DICTIONARY
  5
243
330
45
100
AcDbDictionary
280
     1
281
     1
  3
ACAD_XREC_ROUNDTRIP
360
244
  0
DICTIONARY
  5
241
330
44
100
AcDbDictionary
280
     1
281
     1
  3
ACAD_XREC_ROUNDTRIP
360
242
  0
DICTIONARY
  5
245
330
46
100
AcDbDictionary
280
     1
281
     1
  3
ACAD_XREC_ROUNDTRIP
360
246
  0
DICTIONARY
  5
248
330
6C
100
AcDbDictionary
280
     1
281
     1
  3
ACAD_XREC_ROUNDTRIP
360
249
  0
DICTIONARY
  5
219
330
2F
100
AcDbDictionary
280
     1
281
     1
  3
ACAD_XREC_ROUNDTRIP
360
21A
  0
DICTIONARY
  5
21F
330
32
100
AcDbDictionary
280
     1
281
     1
  3
ACAD_XREC_ROUNDTRIP
360
220
  0
DICTIONARY
  5
227
330
36
100
AcDbDictionary
280
     1
281
     1
  3
ACAD_XREC_ROUNDTRIP
360
228
  0
DICTIONARY
  5
22F
330
3A
100
AcDbDictionary
280
     1
281
     1
  3
ACAD_XREC_ROUNDTRIP
360
230
  0
DICTIONARY
  5
223
330
34
100
AcDbDictionary
280
     1
281
     1
  3
ACAD_XREC_ROUNDTRIP
360
224
  0
DICTIONARY
  5
225
330
35
100
AcDbDictionary
280
     1
281
     1
  3
ACAD_XREC_ROUNDTRIP
360
226
  0
DICTIONARY
  5
235
330
3D
100
AcDbDictionary
280
     1
281
     1
  3
ACAD_XREC_ROUNDTRIP
360
236
  0
DICTIONARY
  5
22D
330
39
100
AcDbDictionary
280
     1
281
     1
  3
ACAD_XREC_ROUNDTRIP
360
22E
  0
DICTIONARY
  5
211
330
2B
100
AcDbDictionary
280
     1
281
     1
  3
ACAD_XREC_ROUNDTRIP
360
212
  0
DICTIONARY
  5
213
330
2C
100
AcDbDictionary
280
     1
281
     1
  3
ACAD_XREC_ROUNDTRIP
360
214
  0
DICTIONARY
  5
215
330
2D
100
AcDbDictionary
280
     1
281
     1
  3
ACAD_XREC_ROUNDTRIP
360
216
  0
DICTIONARY
  5
217
330
2E
100
AcDbDictionary
280
     1
281
     1
  3
ACAD_XREC_ROUNDTRIP
360
218
  0
DICTIONARY
  5
21D
330
31
100
AcDbDictionary
280
     1
281
     1
  3
ACAD_XREC_ROUNDTRIP
360
21E
  0
DICTIONARY
  5
231
330
3B
100
AcDbDictionary
280
     1
281
     1
  3
ACAD_XREC_ROUNDTRIP
360
232
  0
DICTIONARY
  5
22B
330
38
100
AcDbDictionary
280
     1
281
     1
  3
ACAD_XREC_ROUNDTRIP
360
22C
  0
DICTIONARY
  5
233
330
3C
100
AcDbDictionary
280
     1
281
     1
  3
ACAD_XREC_ROUNDTRIP
360
234
  0
DICTIONARY
  5
221
330
33
100
AcDbDictionary
280
     1
281
     1
  3
ACAD_XREC_ROUNDTRIP
360
222
  0
DICTIONARY
  5
23F
330
42
100
AcDbDictionary
280
     1
281
     1
  3
ACAD_XREC_ROUNDTRIP
360
240
  0
DICTIONARY
  5
23D
330
41
100
AcDbDictionary
280
     1
281
     1
  3
ACAD_XREC_ROUNDTRIP
360
23E
  0
DICTIONARY
  5
237
330
3E
100
AcDbDictionary
280
     1
281
     1
  3
ACAD_XREC_ROUNDTRIP
360
238
  0
DICTIONARY
  5
239
330
3F
100
AcDbDictionary
280
     1
281
     1
  3
ACAD_XREC_ROUNDTRIP
360
23A
  0
DICTIONARY
  5
229
330
37
100
AcDbDictionary
280
     1
281
     1
  3
ACAD_XREC_ROUNDTRIP
360
22A
  0
DICTIONARY
  5
21B
330
30
100
AcDbDictionary
280
     1
281
     1
  3
ACAD_XREC_ROUNDTRIP
360
21C
  0
DICTIONARY
  5
23B
330
40
100
AcDbDictionary
280
     1
281
     1
  3
ACAD_XREC_ROUNDTRIP
360
23C
  0
XRECORD
  5
244
102
{ACAD_REACTORS
330
243
102
}
330
243
100
AcDbXrecord
280
     1
102
MATERIAL
148
0.0
149
0.0
149
0.0
 93
        0
 94
      127
282
     0
 72
     1
 77
     1
171
     1
175
     1
179
     1
273
     0
  0
XRECORD
  5
242
102
{ACAD_REACTORS
330
241
102
}
330
241
100
AcDbXrecord
280
     1
102
MATERIAL
148
0.0
149
0.0
149
0.0
 93
        0
 94
      127
282
     0
 72
     1
 77
     1
171
     1
175
     1
179
     1
273
     0
  0
XRECORD
  5
246
102
{ACAD_REACTORS
330
245
102
}
330
245
100
AcDbXrecord
280
     1
102
MATERIAL
148
0.0
149
0.0
149
0.0
 93
        0
 94
      127
282
     0
 72
     1
 77
     1
171
     1
175
     1
179
     1
273
     0
  0
XRECORD
  5
249
102
{ACAD_REACTORS
330
248
102
}
330
248
100
AcDbXrecord
280
     1
102
ACAD_ROUNDTRIP_2010_MLEADER_STYLE
  0
XRECORD
  5
21A
102
{ACAD_REACTORS
330
219
102
}
330
219
100
AcDbXrecord
280
     1
102
RTVSPropertyOp0
 70
     1
102
RTVSPropertyOp1
 70
     1
102
RTVSPropertyOp2
 70
     1
102
RTVSPropertyOp3
 70
     1
102
RTVSPropertyOp4
 70
     1
102
RTVSPropertyOp5
 70
     1
102
RTVSPropertyOp6
 70
     1
102
RTVSPropertyOp7
 70
     1
102
RTVSPropertyOp8
 70
     1
102
RTVSPropertyOp9
 70
     1
102
RTVSPropertyOp10
 70
     1
102
RTVSPropertyOp11
 70
     1
102
RTVSPropertyOp12
 70
     1
102
RTVSPropertyOp13
 70
     1
102
RTVSPropertyOp14
 70
     1
102
RTVSPropertyOp15
 70
     1
102
RTVSPropertyOp16
 70
     1
102
RTVSPropertyOp17
 70
     1
102
RTVSPropertyOp18
 70
     1
102
RTVSPropertyOp19
 70
     1
102
RTVSPropertyOp20
 70
     1
102
RTVSPropertyOp21
 70
     1
102
RTVSPropertyOp22
 70
     1
102
RTVSPropertyOp23
 70
     1
102
RTVSPropertyOp24
 70
     1
102
RTVSPropertyOp25
 70
     1
102
RTVSPropertyOp26
 70
     1
102
RTVSPropertyOp27
 70
     1
102
RTVSPropertyOp28
 70
     1
102
RTVSPropertyOp29
 70
     1
102
RTVSPropertyOp30
 70
     1
102
RTVSPropertyOp31
 70
     1
102
RTVSPropertyOp32
 70
     1
102
RTVSPropertyOp33
 70
     1
102
RTVSPropertyOp34
 70
     1
102
RTVSPropertyOp35
 70
     1
102
RTVSPropertyOp36
 70
     1
102
RTVSPropertyOp37
 70
     1
102
RTVSPropertyOp38
 70
     1
102
RTVSPropertyOp39
 70
     1
102
RTVSPropertyOp40
 70
     1
102
RTVSPropertyOp41
 70
     1
102
RTVSPropertyOp42
 70
     1
102
RTVSPropertyOp43
 70
     1
102
RTVSPropertyOp44
 70
     1
102
RTVSPropertyOp45
 70
     1
102
RTVSPropertyOp46
 70
     1
102
RTVSPropertyOp47
 70
     1
102
RTVSPropertyOp48
 70
     1
102
RTVSPropertyOp49
 70
     1
102
RTVSPropertyOp50
 70
     1
102
RTVSPropertyOp51
 70
     0
102
RTVSPropertyOp52
 70
     0
102
RTVSPropertyOp53
 70
     1
102
RTVSPropertyOp54
 70
     1
102
RTVSPropertyOp55
 70
     1
102
RTVSPropertyOp56
 70
     1
102
RTVSPropertyOp57
 70
     1
102
RTVSPost2010Prop28
280
     1
102
RTVSPost2010PropOp28
 70
     1
102
RTVSPost2010Prop29
280
     1
102
RTVSPost2010PropOp29
 70
     1
102
RTVSPost2010Prop30
280
     0
102
RTVSPost2010PropOp30
 70
     1
102
RTVSPost2010Prop31
280
     0
102
RTVSPost2010PropOp31
 70
     1
102
RTVSPost2010Prop32
280
     0
102
RTVSPost2010PropOp32
 70
     1
102
RTVSPost2010Prop33
280
     0
102
RTVSPost2010PropOp33
 70
     1
102
RTVSPost2010Prop34
280
     0
102
RTVSPost2010PropOp34
 70
     1
102
RTVSPost2010Prop35
280
     0
102
RTVSPost2010PropOp35
 70
     1
102
RTVSPost2010Prop36
280
     0
102
RTVSPost2010PropOp36
 70
     1
102
RTVSPost2010Prop37
 90
       50
102
RTVSPost2010PropOp37
 70
     1
102
RTVSPost2010Prop38
140
0.0
102
RTVSPost2010PropOp38
 70
     1
102
RTVSPost2010Prop39
140
1.0
102
RTVSPost2010PropOp39
 70
     1
102
RTVSPost2010Prop40
 90
        0
102
RTVSPost2010PropOp40
 70
     1
102
RTVSPost2010Prop41ColorIndex
 90
       18
102
RTVSPost2010Prop41ColorRGB
 90
        0
102
RTVSPost2010PropOp41
 70
     1
102
RTVSPost2010Prop42
 90
       50
102
RTVSPost2010PropOp42
 70
     1
102
RTVSPost2010Prop43
 90
        3
102
RTVSPost2010PropOp43
 70
     1
102
RTVSPost2010Prop44ColorIndex
 90
        5
102
RTVSPost2010Prop44ColorRGB
 90
      255
102
RTVSPost2010PropOp44
 70
     1
102
RTVSPost2010Prop45
280
     0
102
RTVSPost2010PropOp45
 70
     1
102
RTVSPost2010Prop46
 90
       50
102
RTVSPost2010PropOp46
 70
     1
102
RTVSPost2010Prop47
 90
       50
102
RTVSPost2010PropOp47
 70
     1
102
RTVSPost2010Prop48
 90
       50
102
RTVSPost2010PropOp48
 70
     1
102
RTVSPost2010Prop49
280
     0
102
RTVSPost2010PropOp49
 70
     1
102
RTVSPost2010Prop50
 90
       50
102
RTVSPost2010PropOp50
 70
     1
102
RTVSPost2010Prop51ColorIndex
 90
      256
102
RTVSPost2010Prop51ColorRGB
 90
-16777216
102
RTVSPost2010PropOp51
 70
     0
102
RTVSPost2010Prop52
140
1.0
102
RTVSPost2010PropOp52
 70
     0
102
RTVSPost2010Prop53
 90
        2
102
RTVSPost2010PropOp53
 70
     1
102
RTVSPost2010Prop54
  1
strokes_ogs.tif
102
RTVSPost2010PropOp54
 70
     1
102
RTVSPost2010Prop55
280
     0
102
RTVSPost2010PropOp55
 70
     1
102
RTVSPost2010Prop56
140
1.0
102
RTVSPost2010PropOp56
 70
     1
102
RTVSPost2010Prop57
140
1.0
102
RTVSPost2010PropOp57
 70
     1
  0
XRECORD
  5
220
102
{ACAD_REACTORS
330
21F
102
}
330
21F
100
AcDbXrecord
280
     1
102
RTVSPropertyOp0
 70
     1
102
RTVSPropertyOp1
 70
     1
102
RTVSPropertyOp2
 70
     1
102
RTVSPropertyOp3
 70
     1
102
RTVSPropertyOp4
 70
     1
102
RTVSPropertyOp5
 70
     1
102
RTVSPropertyOp6
 70
     1
102
RTVSPropertyOp7
 70
     1
102
RTVSPropertyOp8
 70
     1
102
RTVSPropertyOp9
 70
     1
102
RTVSPropertyOp10
 70
     1
102
RTVSPropertyOp11
 70
     1
102
RTVSPropertyOp12
 70
     1
102
RTVSPropertyOp13
 70
     1
102
RTVSPropertyOp14
 70
     1
102
RTVSPropertyOp15
 70
     1
102
RTVSPropertyOp16
 70
     1
102
RTVSPropertyOp17
 70
     1
102
RTVSPropertyOp18
 70
     1
102
RTVSPropertyOp19
 70
     1
102
RTVSPropertyOp20
 70
     1
102
RTVSPropertyOp21
 70
     1
102
RTVSPropertyOp22
 70
     1
102
RTVSPropertyOp23
 70
     1
102
RTVSPropertyOp24
 70
     1
102
RTVSPropertyOp25
 70
     1
102
RTVSPropertyOp26
 70
     1
102
RTVSPropertyOp27
 70
     1
102
RTVSPropertyOp28
 70
     1
102
RTVSPropertyOp29
 70
     1
102
RTVSPropertyOp30
 70
     1
102
RTVSPropertyOp31
 70
     1
102
RTVSPropertyOp32
 70
     1
102
RTVSPropertyOp33
 70
     1
102
RTVSPropertyOp34
 70
     1
102
RTVSPropertyOp35
 70
     1
102
RTVSPropertyOp36
 70
     1
102
RTVSPropertyOp37
 70
     1
102
RTVSPropertyOp38
 70
     1
102
RTVSPropertyOp39
 70
     1
102
RTVSPropertyOp40
 70
     1
102
RTVSPropertyOp41
 70
     1
102
RTVSPropertyOp42
 70
     1
102
RTVSPropertyOp43
 70
     1
102
RTVSPropertyOp44
 70
     1
102
RTVSPropertyOp45
 70
     1
102
RTVSPropertyOp46
 70
     1
102
RTVSPropertyOp47
 70
     1
102
RTVSPropertyOp48
 70
     1
102
RTVSPropertyOp49
 70
     1
102
RTVSPropertyOp50
 70
     1
102
RTVSPropertyOp51
 70
     0
102
RTVSPropertyOp52
 70
     0
102
RTVSPropertyOp53
 70
     1
102
RTVSPropertyOp54
 70
     1
102
RTVSPropertyOp55
 70
     1
102
RTVSPropertyOp56
 70
     1
102
RTVSPropertyOp57
 70
     1
102
RTVSPost2010Prop28
280
     0
102
RTVSPost2010PropOp28
 70
     1
102
RTVSPost2010Prop29
280
     1
102
RTVSPost2010PropOp29
 70
     1
102
RTVSPost2010Prop30
280
     1
102
RTVSPost2010PropOp30
 70
     1
102
RTVSPost2010Prop31
280
     0
102
RTVSPost2010PropOp31
 70
     1
102
RTVSPost2010Prop32
280
     0
102
RTVSPost2010PropOp32
 70
     1
102
RTVSPost2010Prop33
280
     0
102
RTVSPost2010PropOp33
 70
     1
102
RTVSPost2010Prop34
280
     0
102
RTVSPost2010PropOp34
 70
     1
102
RTVSPost2010Prop35
280
     0
102
RTVSPost2010PropOp35
 70
     1
102
RTVSPost2010Prop36
280
     0
102
RTVSPost2010PropOp36
 70
     1
102
RTVSPost2010Prop37
 90
       50
102
RTVSPost2010PropOp37
 70
     1
102
RTVSPost2010Prop38
140
0.0
102
RTVSPost2010PropOp38
 70
     1
102
RTVSPost2010Prop39
140
1.0
102
RTVSPost2010PropOp39
 70
     1
102
RTVSPost2010Prop40
 90
        0
102
RTVSPost2010PropOp40
 70
     1
102
RTVSPost2010Prop41ColorIndex
 90
       18
102
RTVSPost2010Prop41ColorRGB
 90
        0
102
RTVSPost2010PropOp41
 70
     1
102
RTVSPost2010Prop42
 90
       50
102
RTVSPost2010PropOp42
 70
     1
102
RTVSPost2010Prop43
 90
        3
102
RTVSPost2010PropOp43
 70
     1
102
RTVSPost2010Prop44ColorIndex
 90
        5
102
RTVSPost2010Prop44ColorRGB
 90
      255
102
RTVSPost2010PropOp44
 70
     1
102
RTVSPost2010Prop45
280
     0
102
RTVSPost2010PropOp45
 70
     1
102
RTVSPost2010Prop46
 90
       50
102
RTVSPost2010PropOp46
 70
     1
102
RTVSPost2010Prop47
 90
       50
102
RTVSPost2010PropOp47
 70
     1
102
RTVSPost2010Prop48
 90
       50
102
RTVSPost2010PropOp48
 70
     1
102
RTVSPost2010Prop49
280
     0
102
RTVSPost2010PropOp49
 70
     1
102
RTVSPost2010Prop50
 90
       50
102
RTVSPost2010PropOp50
 70
     1
102
RTVSPost2010Prop51ColorIndex
 90
      256
102
RTVSPost2010Prop51ColorRGB
 90
-16777216
102
RTVSPost2010PropOp51
 70
     0
102
RTVSPost2010Prop52
140
1.0
102
RTVSPost2010PropOp52
 70
     0
102
RTVSPost2010Prop53
 90
        2
102
RTVSPost2010PropOp53
 70
     1
102
RTVSPost2010Prop54
  1
strokes_ogs.tif
102
RTVSPost2010PropOp54
 70
     1
102
RTVSPost2010Prop55
280
     0
102
RTVSPost2010PropOp55
 70
     1
102
RTVSPost2010Prop56
140
1.0
102
RTVSPost2010PropOp56
 70
     1
102
RTVSPost2010Prop57
140
1.0
102
RTVSPost2010PropOp57
 70
     1
  0
XRECORD
  5
228
102
{ACAD_REACTORS
330
227
102
}
330
227
100
AcDbXrecord
280
     1
102
RTVSPropertyOp0
 70
     1
102
RTVSPropertyOp1
 70
     1
102
RTVSPropertyOp2
 70
     1
102
RTVSPropertyOp3
 70
     1
102
RTVSPropertyOp4
 70
     1
102
RTVSPropertyOp5
 70
     1
102
RTVSPropertyOp6
 70
     1
102
RTVSPropertyOp7
 70
     1
102
RTVSPropertyOp8
 70
     1
102
RTVSPropertyOp9
 70
     1
102
RTVSPropertyOp10
 70
     1
102
RTVSPropertyOp11
 70
     1
102
RTVSPropertyOp12
 70
     1
102
RTVSPropertyOp13
 70
     1
102
RTVSPropertyOp14
 70
     1
102
RTVSPropertyOp15
 70
     1
102
RTVSPropertyOp16
 70
     1
102
RTVSPropertyOp17
 70
     1
102
RTVSPropertyOp18
 70
     1
102
RTVSPropertyOp19
 70
     1
102
RTVSPropertyOp20
 70
     1
102
RTVSPropertyOp21
 70
     1
102
RTVSPropertyOp22
 70
     1
102
RTVSPropertyOp23
 70
     1
102
RTVSPropertyOp24
 70
     1
102
RTVSPropertyOp25
 70
     1
102
RTVSPropertyOp26
 70
     1
102
RTVSPropertyOp27
 70
     1
102
RTVSPropertyOp28
 70
     1
102
RTVSPropertyOp29
 70
     1
102
RTVSPropertyOp30
 70
     1
102
RTVSPropertyOp31
 70
     1
102
RTVSPropertyOp32
 70
     1
102
RTVSPropertyOp33
 70
     1
102
RTVSPropertyOp34
 70
     1
102
RTVSPropertyOp35
 70
     1
102
RTVSPropertyOp36
 70
     1
102
RTVSPropertyOp37
 70
     1
102
RTVSPropertyOp38
 70
     1
102
RTVSPropertyOp39
 70
     1
102
RTVSPropertyOp40
 70
     1
102
RTVSPropertyOp41
 70
     1
102
RTVSPropertyOp42
 70
     1
102
RTVSPropertyOp43
 70
     1
102
RTVSPropertyOp44
 70
     1
102
RTVSPropertyOp45
 70
     1
102
RTVSPropertyOp46
 70
     1
102
RTVSPropertyOp47
 70
     1
102
RTVSPropertyOp48
 70
     1
102
RTVSPropertyOp49
 70
     1
102
RTVSPropertyOp50
 70
     1
102
RTVSPropertyOp51
 70
     0
102
RTVSPropertyOp52
 70
     0
102
RTVSPropertyOp53
 70
     1
102
RTVSPropertyOp54
 70
     1
102
RTVSPropertyOp55
 70
     1
102
RTVSPropertyOp56
 70
     1
102
RTVSPropertyOp57
 70
     1
102
RTVSPost2010Prop28
280
     0
102
RTVSPost2010PropOp28
 70
     1
102
RTVSPost2010Prop29
280
     1
102
RTVSPost2010PropOp29
 70
     1
102
RTVSPost2010Prop30
280
     1
102
RTVSPost2010PropOp30
 70
     1
102
RTVSPost2010Prop31
280
     0
102
RTVSPost2010PropOp31
 70
     1
102
RTVSPost2010Prop32
280
     0
102
RTVSPost2010PropOp32
 70
     1
102
RTVSPost2010Prop33
280
     0
102
RTVSPost2010PropOp33
 70
     1
102
RTVSPost2010Prop34
280
     0
102
RTVSPost2010PropOp34
 70
     1
102
RTVSPost2010Prop35
280
     0
102
RTVSPost2010PropOp35
 70
     1
102
RTVSPost2010Prop36
280
     0
102
RTVSPost2010PropOp36
 70
     1
102
RTVSPost2010Prop37
 90
       50
102
RTVSPost2010PropOp37
 70
     1
102
RTVSPost2010Prop38
140
0.0
102
RTVSPost2010PropOp38
 70
     1
102
RTVSPost2010Prop39
140
1.0
102
RTVSPost2010PropOp39
 70
     1
102
RTVSPost2010Prop40
 90
        0
102
RTVSPost2010PropOp40
 70
     1
102
RTVSPost2010Prop41ColorIndex
 90
       18
102
RTVSPost2010Prop41ColorRGB
 90
        0
102
RTVSPost2010PropOp41
 70
     1
102
RTVSPost2010Prop42
 90
       50
102
RTVSPost2010PropOp42
 70
     1
102
RTVSPost2010Prop43
 90
        3
102
RTVSPost2010PropOp43
 70
     1
102
RTVSPost2010Prop44ColorIndex
 90
        5
102
RTVSPost2010Prop44ColorRGB
 90
      255
102
RTVSPost2010PropOp44
 70
     1
102
RTVSPost2010Prop45
280
     0
102
RTVSPost2010PropOp45
 70
     1
102
RTVSPost2010Prop46
 90
       50
102
RTVSPost2010PropOp46
 70
     1
102
RTVSPost2010Prop47
 90
       50
102
RTVSPost2010PropOp47
 70
     1
102
RTVSPost2010Prop48
 90
       50
102
RTVSPost2010PropOp48
 70
     1
102
RTVSPost2010Prop49
280
     0
102
RTVSPost2010PropOp49
 70
     1
102
RTVSPost2010Prop50
 90
       50
102
RTVSPost2010PropOp50
 70
     1
102
RTVSPost2010Prop51ColorIndex
 90
      256
102
RTVSPost2010Prop51ColorRGB
 90
-16777216
102
RTVSPost2010PropOp51
 70
     0
102
RTVSPost2010Prop52
140
1.0
102
RTVSPost2010PropOp52
 70
     0
102
RTVSPost2010Prop53
 90
        2
102
RTVSPost2010PropOp53
 70
     1
102
RTVSPost2010Prop54
  1
strokes_ogs.tif
102
RTVSPost2010PropOp54
 70
     1
102
RTVSPost2010Prop55
280
     0
102
RTVSPost2010PropOp55
 70
     1
102
RTVSPost2010Prop56
140
1.0
102
RTVSPost2010PropOp56
 70
     1
102
RTVSPost2010Prop57
140
1.0
102
RTVSPost2010PropOp57
 70
     1
  0
XRECORD
  5
230
102
{ACAD_REACTORS
330
22F
102
}
330
22F
100
AcDbXrecord
280
     1
102
RTVSPropertyOp0
 70
     1
102
RTVSPropertyOp1
 70
     1
102
RTVSPropertyOp2
 70
     1
102
RTVSPropertyOp3
 70
     1
102
RTVSPropertyOp4
 70
     1
102
RTVSPropertyOp5
 70
     1
102
RTVSPropertyOp6
 70
     1
102
RTVSPropertyOp7
 70
     1
102
RTVSPropertyOp8
 70
     1
102
RTVSPropertyOp9
 70
     1
102
RTVSPropertyOp10
 70
     1
102
RTVSPropertyOp11
 70
     1
102
RTVSPropertyOp12
 70
     1
102
RTVSPropertyOp13
 70
     1
102
RTVSPropertyOp14
 70
     1
102
RTVSPropertyOp15
 70
     1
102
RTVSPropertyOp16
 70
     1
102
RTVSPropertyOp17
 70
     1
102
RTVSPropertyOp18
 70
     1
102
RTVSPropertyOp19
 70
     1
102
RTVSPropertyOp20
 70
     1
102
RTVSPropertyOp21
 70
     1
102
RTVSPropertyOp22
 70
     1
102
RTVSPropertyOp23
 70
     1
102
RTVSPropertyOp24
 70
     1
102
RTVSPropertyOp25
 70
     1
102
RTVSPropertyOp26
 70
     1
102
RTVSPropertyOp27
 70
     1
102
RTVSPropertyOp28
 70
     1
102
RTVSPropertyOp29
 70
     1
102
RTVSPropertyOp30
 70
     1
102
RTVSPropertyOp31
 70
     1
102
RTVSPropertyOp32
 70
     1
102
RTVSPropertyOp33
 70
     1
102
RTVSPropertyOp34
 70
     1
102
RTVSPropertyOp35
 70
     1
102
RTVSPropertyOp36
 70
     1
102
RTVSPropertyOp37
 70
     1
102
RTVSPropertyOp38
 70
     1
102
RTVSPropertyOp39
 70
     1
102
RTVSPropertyOp40
 70
     1
102
RTVSPropertyOp41
 70
     1
102
RTVSPropertyOp42
 70
     1
102
RTVSPropertyOp43
 70
     1
102
RTVSPropertyOp44
 70
     1
102
RTVSPropertyOp45
 70
     1
102
RTVSPropertyOp46
 70
     1
102
RTVSPropertyOp47
 70
     1
102
RTVSPropertyOp48
 70
     1
102
RTVSPropertyOp49
 70
     1
102
RTVSPropertyOp50
 70
     1
102
RTVSPropertyOp51
 70
     0
102
RTVSPropertyOp52
 70
     0
102
RTVSPropertyOp53
 70
     1
102
RTVSPropertyOp54
 70
     1
102
RTVSPropertyOp55
 70
     1
102
RTVSPropertyOp56
 70
     1
102
RTVSPropertyOp57
 70
     1
102
RTVSPost2010Prop28
280
     0
102
RTVSPost2010PropOp28
 70
     1
102
RTVSPost2010Prop29
280
     1
102
RTVSPost2010PropOp29
 70
     1
102
RTVSPost2010Prop30
280
     1
102
RTVSPost2010PropOp30
 70
     1
102
RTVSPost2010Prop31
280
     0
102
RTVSPost2010PropOp31
 70
     1
102
RTVSPost2010Prop32
280
     0
102
RTVSPost2010PropOp32
 70
     1
102
RTVSPost2010Prop33
280
     0
102
RTVSPost2010PropOp33
 70
     1
102
RTVSPost2010Prop34
280
     0
102
RTVSPost2010PropOp34
 70
     1
102
RTVSPost2010Prop35
280
     0
102
RTVSPost2010PropOp35
 70
     1
102
RTVSPost2010Prop36
280
     0
102
RTVSPost2010PropOp36
 70
     1
102
RTVSPost2010Prop37
 90
       50
102
RTVSPost2010PropOp37
 70
     1
102
RTVSPost2010Prop38
140
0.0
102
RTVSPost2010PropOp38
 70
     1
102
RTVSPost2010Prop39
140
1.0
102
RTVSPost2010PropOp39
 70
     1
102
RTVSPost2010Prop40
 90
        0
102
RTVSPost2010PropOp40
 70
     1
102
RTVSPost2010Prop41ColorIndex
 90
       18
102
RTVSPost2010Prop41ColorRGB
 90
        0
102
RTVSPost2010PropOp41
 70
     1
102
RTVSPost2010Prop42
 90
       50
102
RTVSPost2010PropOp42
 70
     1
102
RTVSPost2010Prop43
 90
        3
102
RTVSPost2010PropOp43
 70
     1
102
RTVSPost2010Prop44ColorIndex
 90
        5
102
RTVSPost2010Prop44ColorRGB
 90
      255
102
RTVSPost2010PropOp44
 70
     1
102
RTVSPost2010Prop45
280
     0
102
RTVSPost2010PropOp45
 70
     1
102
RTVSPost2010Prop46
 90
       50
102
RTVSPost2010PropOp46
 70
     1
102
RTVSPost2010Prop47
 90
       50
102
RTVSPost2010PropOp47
 70
     1
102
RTVSPost2010Prop48
 90
       50
102
RTVSPost2010PropOp48
 70
     1
102
RTVSPost2010Prop49
280
     0
102
RTVSPost2010PropOp49
 70
     1
102
RTVSPost2010Prop50
 90
       50
102
RTVSPost2010PropOp50
 70
     1
102
RTVSPost2010Prop51ColorIndex
 90
      256
102
RTVSPost2010Prop51ColorRGB
 90
-16777216
102
RTVSPost2010PropOp51
 70
     0
102
RTVSPost2010Prop52
140
1.0
102
RTVSPost2010PropOp52
 70
     0
102
RTVSPost2010Prop53
 90
        2
102
RTVSPost2010PropOp53
 70
     1
102
RTVSPost2010Prop54
  1
strokes_ogs.tif
102
RTVSPost2010PropOp54
 70
     1
102
RTVSPost2010Prop55
280
     0
102
RTVSPost2010PropOp55
 70
     1
102
RTVSPost2010Prop56
140
1.0
102
RTVSPost2010PropOp56
 70
     1
102
RTVSPost2010Prop57
140
1.0
102
RTVSPost2010PropOp57
 70
     1
  0
XRECORD
  5
224
102
{ACAD_REACTORS
330
223
102
}
330
223
100
AcDbXrecord
280
     1
102
RTVSPropertyOp0
 70
     1
102
RTVSPropertyOp1
 70
     1
102
RTVSPropertyOp2
 70
     1
102
RTVSPropertyOp3
 70
     1
102
RTVSPropertyOp4
 70
     1
102
RTVSPropertyOp5
 70
     1
102
RTVSPropertyOp6
 70
     1
102
RTVSPropertyOp7
 70
     1
102
RTVSPropertyOp8
 70
     1
102
RTVSPropertyOp9
 70
     1
102
RTVSPropertyOp10
 70
     1
102
RTVSPropertyOp11
 70
     1
102
RTVSPropertyOp12
 70
     1
102
RTVSPropertyOp13
 70
     1
102
RTVSPropertyOp14
 70
     1
102
RTVSPropertyOp15
 70
     1
102
RTVSPropertyOp16
 70
     1
102
RTVSPropertyOp17
 70
     1
102
RTVSPropertyOp18
 70
     1
102
RTVSPropertyOp19
 70
     1
102
RTVSPropertyOp20
 70
     1
102
RTVSPropertyOp21
 70
     1
102
RTVSPropertyOp22
 70
     1
102
RTVSPropertyOp23
 70
     1
102
RTVSPropertyOp24
 70
     1
102
RTVSPropertyOp25
 70
     1
102
RTVSPropertyOp26
 70
     1
102
RTVSPropertyOp27
 70
     1
102
RTVSPropertyOp28
 70
     1
102
RTVSPropertyOp29
 70
     1
102
RTVSPropertyOp30
 70
     1
102
RTVSPropertyOp31
 70
     1
102
RTVSPropertyOp32
 70
     1
102
RTVSPropertyOp33
 70
     1
102
RTVSPropertyOp34
 70
     1
102
RTVSPropertyOp35
 70
     1
102
RTVSPropertyOp36
 70
     1
102
RTVSPropertyOp37
 70
     1
102
RTVSPropertyOp38
 70
     1
102
RTVSPropertyOp39
 70
     1
102
RTVSPropertyOp40
 70
     1
102
RTVSPropertyOp41
 70
     1
102
RTVSPropertyOp42
 70
     1
102
RTVSPropertyOp43
 70
     1
102
RTVSPropertyOp44
 70
     1
102
RTVSPropertyOp45
 70
     1
102
RTVSPropertyOp46
 70
     1
102
RTVSPropertyOp47
 70
     1
102
RTVSPropertyOp48
 70
     1
102
RTVSPropertyOp49
 70
     1
102
RTVSPropertyOp50
 70
     1
102
RTVSPropertyOp51
 70
     0
102
RTVSPropertyOp52
 70
     0
102
RTVSPropertyOp53
 70
     1
102
RTVSPropertyOp54
 70
     1
102
RTVSPropertyOp55
 70
     1
102
RTVSPropertyOp56
 70
     1
102
RTVSPropertyOp57
 70
     1
102
RTVSPost2010Prop28
280
     0
102
RTVSPost2010PropOp28
 70
     1
102
RTVSPost2010Prop29
280
     1
102
RTVSPost2010PropOp29
 70
     1
102
RTVSPost2010Prop30
280
     1
102
RTVSPost2010PropOp30
 70
     1
102
RTVSPost2010Prop31
280
     0
102
RTVSPost2010PropOp31
 70
     1
102
RTVSPost2010Prop32
280
     0
102
RTVSPost2010PropOp32
 70
     1
102
RTVSPost2010Prop33
280
     0
102
RTVSPost2010PropOp33
 70
     1
102
RTVSPost2010Prop34
280
     0
102
RTVSPost2010PropOp34
 70
     1
102
RTVSPost2010Prop35
280
     0
102
RTVSPost2010PropOp35
 70
     1
102
RTVSPost2010Prop36
280
     0
102
RTVSPost2010PropOp36
 70
     1
102
RTVSPost2010Prop37
 90
       50
102
RTVSPost2010PropOp37
 70
     1
102
RTVSPost2010Prop38
140
0.0
102
RTVSPost2010PropOp38
 70
     1
102
RTVSPost2010Prop39
140
1.0
102
RTVSPost2010PropOp39
 70
     1
102
RTVSPost2010Prop40
 90
        0
102
RTVSPost2010PropOp40
 70
     1
102
RTVSPost2010Prop41ColorIndex
 90
       18
102
RTVSPost2010Prop41ColorRGB
 90
        0
102
RTVSPost2010PropOp41
 70
     1
102
RTVSPost2010Prop42
 90
       50
102
RTVSPost2010PropOp42
 70
     1
102
RTVSPost2010Prop43
 90
        3
102
RTVSPost2010PropOp43
 70
     1
102
RTVSPost2010Prop44ColorIndex
 90
        5
102
RTVSPost2010Prop44ColorRGB
 90
      255
102
RTVSPost2010PropOp44
 70
     1
102
RTVSPost2010Prop45
280
     0
102
RTVSPost2010PropOp45
 70
     1
102
RTVSPost2010Prop46
 90
       50
102
RTVSPost2010PropOp46
 70
     1
102
RTVSPost2010Prop47
 90
       50
102
RTVSPost2010PropOp47
 70
     1
102
RTVSPost2010Prop48
 90
       50
102
RTVSPost2010PropOp48
 70
     1
102
RTVSPost2010Prop49
280
     0
102
RTVSPost2010PropOp49
 70
     1
102
RTVSPost2010Prop50
 90
       50
102
RTVSPost2010PropOp50
 70
     1
102
RTVSPost2010Prop51ColorIndex
 90
      256
102
RTVSPost2010Prop51ColorRGB
 90
-16777216
102
RTVSPost2010PropOp51
 70
     0
102
RTVSPost2010Prop52
140
1.0
102
RTVSPost2010PropOp52
 70
     0
102
RTVSPost2010Prop53
 90
        2
102
RTVSPost2010PropOp53
 70
     1
102
RTVSPost2010Prop54
  1
strokes_ogs.tif
102
RTVSPost2010PropOp54
 70
     1
102
RTVSPost2010Prop55
280
     0
102
RTVSPost2010PropOp55
 70
     1
102
RTVSPost2010Prop56
140
1.0
102
RTVSPost2010PropOp56
 70
     1
102
RTVSPost2010Prop57
140
1.0
102
RTVSPost2010PropOp57
 70
     1
  0
XRECORD
  5
226
102
{ACAD_REACTORS
330
225
102
}
330
225
100
AcDbXrecord
280
     1
102
RTVSPropertyOp0
 70
     1
102
RTVSPropertyOp1
 70
     1
102
RTVSPropertyOp2
 70
     1
102
RTVSPropertyOp3
 70
     1
102
RTVSPropertyOp4
 70
     1
102
RTVSPropertyOp5
 70
     1
102
RTVSPropertyOp6
 70
     1
102
RTVSPropertyOp7
 70
     1
102
RTVSPropertyOp8
 70
     1
102
RTVSPropertyOp9
 70
     1
102
RTVSPropertyOp10
 70
     1
102
RTVSPropertyOp11
 70
     1
102
RTVSPropertyOp12
 70
     1
102
RTVSPropertyOp13
 70
     1
102
RTVSPropertyOp14
 70
     1
102
RTVSPropertyOp15
 70
     1
102
RTVSPropertyOp16
 70
     1
102
RTVSPropertyOp17
 70
     1
102
RTVSPropertyOp18
 70
     1
102
RTVSPropertyOp19
 70
     1
102
RTVSPropertyOp20
 70
     1
102
RTVSPropertyOp21
 70
     1
102
RTVSPropertyOp22
 70
     1
102
RTVSPropertyOp23
 70
     1
102
RTVSPropertyOp24
 70
     1
102
RTVSPropertyOp25
 70
     1
102
RTVSPropertyOp26
 70
     1
102
RTVSPropertyOp27
 70
     1
102
RTVSPropertyOp28
 70
     1
102
RTVSPropertyOp29
 70
     1
102
RTVSPropertyOp30
 70
     1
102
RTVSPropertyOp31
 70
     1
102
RTVSPropertyOp32
 70
     1
102
RTVSPropertyOp33
 70
     1
102
RTVSPropertyOp34
 70
     1
102
RTVSPropertyOp35
 70
     1
102
RTVSPropertyOp36
 70
     1
102
RTVSPropertyOp37
 70
     1
102
RTVSPropertyOp38
 70
     1
102
RTVSPropertyOp39
 70
     1
102
RTVSPropertyOp40
 70
     1
102
RTVSPropertyOp41
 70
     1
102
RTVSPropertyOp42
 70
     1
102
RTVSPropertyOp43
 70
     1
102
RTVSPropertyOp44
 70
     1
102
RTVSPropertyOp45
 70
     1
102
RTVSPropertyOp46
 70
     1
102
RTVSPropertyOp47
 70
     1
102
RTVSPropertyOp48
 70
     1
102
RTVSPropertyOp49
 70
     1
102
RTVSPropertyOp50
 70
     1
102
RTVSPropertyOp51
 70
     0
102
RTVSPropertyOp52
 70
     0
102
RTVSPropertyOp53
 70
     1
102
RTVSPropertyOp54
 70
     1
102
RTVSPropertyOp55
 70
     1
102
RTVSPropertyOp56
 70
     1
102
RTVSPropertyOp57
 70
     1
102
RTVSPost2010Prop28
280
     0
102
RTVSPost2010PropOp28
 70
     1
102
RTVSPost2010Prop29
280
     1
102
RTVSPost2010PropOp29
 70
     1
102
RTVSPost2010Prop30
280
     1
102
RTVSPost2010PropOp30
 70
     1
102
RTVSPost2010Prop31
280
     0
102
RTVSPost2010PropOp31
 70
     1
102
RTVSPost2010Prop32
280
     0
102
RTVSPost2010PropOp32
 70
     1
102
RTVSPost2010Prop33
280
     0
102
RTVSPost2010PropOp33
 70
     1
102
RTVSPost2010Prop34
280
     0
102
RTVSPost2010PropOp34
 70
     1
102
RTVSPost2010Prop35
280
     0
102
RTVSPost2010PropOp35
 70
     1
102
RTVSPost2010Prop36
280
     0
102
RTVSPost2010PropOp36
 70
     1
102
RTVSPost2010Prop37
 90
       50
102
RTVSPost2010PropOp37
 70
     1
102
RTVSPost2010Prop38
140
0.0
102
RTVSPost2010PropOp38
 70
     1
102
RTVSPost2010Prop39
140
1.0
102
RTVSPost2010PropOp39
 70
     1
102
RTVSPost2010Prop40
 90
        0
102
RTVSPost2010PropOp40
 70
     1
102
RTVSPost2010Prop41ColorIndex
 90
       18
102
RTVSPost2010Prop41ColorRGB
 90
        0
102
RTVSPost2010PropOp41
 70
     1
102
RTVSPost2010Prop42
 90
       50
102
RTVSPost2010PropOp42
 70
     1
102
RTVSPost2010Prop43
 90
        3
102
RTVSPost2010PropOp43
 70
     1
102
RTVSPost2010Prop44ColorIndex
 90
        5
102
RTVSPost2010Prop44ColorRGB
 90
      255
102
RTVSPost2010PropOp44
 70
     1
102
RTVSPost2010Prop45
280
     0
102
RTVSPost2010PropOp45
 70
     1
102
RTVSPost2010Prop46
 90
       50
102
RTVSPost2010PropOp46
 70
     1
102
RTVSPost2010Prop47
 90
       50
102
RTVSPost2010PropOp47
 70
     1
102
RTVSPost2010Prop48
 90
       50
102
RTVSPost2010PropOp48
 70
     1
102
RTVSPost2010Prop49
280
     0
102
RTVSPost2010PropOp49
 70
     1
102
RTVSPost2010Prop50
 90
       50
102
RTVSPost2010PropOp50
 70
     1
102
RTVSPost2010Prop51ColorIndex
 90
      256
102
RTVSPost2010Prop51ColorRGB
 90
-16777216
102
RTVSPost2010PropOp51
 70
     0
102
RTVSPost2010Prop52
140
1.0
102
RTVSPost2010PropOp52
 70
     0
102
RTVSPost2010Prop53
 90
        2
102
RTVSPost2010PropOp53
 70
     1
102
RTVSPost2010Prop54
  1
strokes_ogs.tif
102
RTVSPost2010PropOp54
 70
     1
102
RTVSPost2010Prop55
280
     0
102
RTVSPost2010PropOp55
 70
     1
102
RTVSPost2010Prop56
140
1.0
102
RTVSPost2010PropOp56
 70
     1
102
RTVSPost2010Prop57
140
1.0
102
RTVSPost2010PropOp57
 70
     1
  0
XRECORD
  5
236
102
{ACAD_REACTORS
330
235
102
}
330
235
100
AcDbXrecord
280
     1
102
RTVSPropertyOp0
 70
     0
102
RTVSPropertyOp1
 70
     0
102
RTVSPropertyOp2
 70
     0
102
RTVSPropertyOp3
 70
     0
102
RTVSPropertyOp4
 70
     0
102
RTVSPropertyOp5
 70
     0
102
RTVSPropertyOp6
 70
     0
102
RTVSPropertyOp7
 70
     0
102
RTVSPropertyOp8
 70
     0
102
RTVSPropertyOp9
 70
     0
102
RTVSPropertyOp10
 70
     0
102
RTVSPropertyOp11
 70
     0
102
RTVSPropertyOp12
 70
     0
102
RTVSPropertyOp13
 70
     0
102
RTVSPropertyOp14
 70
     2
102
RTVSPropertyOp15
 70
     0
102
RTVSPropertyOp16
 70
     0
102
RTVSPropertyOp17
 70
     0
102
RTVSPropertyOp18
 70
     0
102
RTVSPropertyOp19
 70
     0
102
RTVSPropertyOp20
 70
     0
102
RTVSPropertyOp21
 70
     0
102
RTVSPropertyOp22
 70
     0
102
RTVSPropertyOp23
 70
     0
102
RTVSPropertyOp24
 70
     0
102
RTVSPropertyOp25
 70
     0
102
RTVSPropertyOp26
 70
     0
102
RTVSPropertyOp27
 70
     0
102
RTVSPropertyOp28
 70
     0
102
RTVSPropertyOp29
 70
     0
102
RTVSPropertyOp30
 70
     0
102
RTVSPropertyOp31
 70
     0
102
RTVSPropertyOp32
 70
     0
102
RTVSPropertyOp33
 70
     0
102
RTVSPropertyOp34
 70
     0
102
RTVSPropertyOp35
 70
     0
102
RTVSPropertyOp36
 70
     0
102
RTVSPropertyOp37
 70
     0
102
RTVSPropertyOp38
 70
     0
102
RTVSPropertyOp39
 70
     0
102
RTVSPropertyOp40
 70
     0
102
RTVSPropertyOp41
 70
     0
102
RTVSPropertyOp42
 70
     0
102
RTVSPropertyOp43
 70
     0
102
RTVSPropertyOp44
 70
     0
102
RTVSPropertyOp45
 70
     0
102
RTVSPropertyOp46
 70
     0
102
RTVSPropertyOp47
 70
     0
102
RTVSPropertyOp48
 70
     0
102
RTVSPropertyOp49
 70
     0
102
RTVSPropertyOp50
 70
     0
102
RTVSPropertyOp51
 70
     0
102
RTVSPropertyOp52
 70
     0
102
RTVSPropertyOp53
 70
     0
102
RTVSPropertyOp54
 70
     0
102
RTVSPropertyOp55
 70
     0
102
RTVSPropertyOp56
 70
     0
102
RTVSPropertyOp57
 70
     0
102
RTVSPost2010Prop28
280
     0
102
RTVSPost2010PropOp28
 70
     0
102
RTVSPost2010Prop29
280
     1
102
RTVSPost2010PropOp29
 70
     0
102
RTVSPost2010Prop30
280
     1
102
RTVSPost2010PropOp30
 70
     0
102
RTVSPost2010Prop31
280
     0
102
RTVSPost2010PropOp31
 70
     0
102
RTVSPost2010Prop32
280
     0
102
RTVSPost2010PropOp32
 70
     0
102
RTVSPost2010Prop33
280
     0
102
RTVSPost2010PropOp33
 70
     0
102
RTVSPost2010Prop34
280
     0
102
RTVSPost2010PropOp34
 70
     0
102
RTVSPost2010Prop35
280
     0
102
RTVSPost2010PropOp35
 70
     0
102
RTVSPost2010Prop36
280
     0
102
RTVSPost2010PropOp36
 70
     0
102
RTVSPost2010Prop37
 90
       50
102
RTVSPost2010PropOp37
 70
     0
102
RTVSPost2010Prop38
140
0.0
102
RTVSPost2010PropOp38
 70
     0
102
RTVSPost2010Prop39
140
1.0
102
RTVSPost2010PropOp39
 70
     0
102
RTVSPost2010Prop40
 90
        0
102
RTVSPost2010PropOp40
 70
     0
102
RTVSPost2010Prop41ColorIndex
 90
       18
102
RTVSPost2010Prop41ColorRGB
 90
        0
102
RTVSPost2010PropOp41
 70
     0
102
RTVSPost2010Prop42
 90
       50
102
RTVSPost2010PropOp42
 70
     0
102
RTVSPost2010Prop43
 90
        3
102
RTVSPost2010PropOp43
 70
     0
102
RTVSPost2010Prop44ColorIndex
 90
        5
102
RTVSPost2010Prop44ColorRGB
 90
      255
102
RTVSPost2010PropOp44
 70
     0
102
RTVSPost2010Prop45
280
     0
102
RTVSPost2010PropOp45
 70
     0
102
RTVSPost2010Prop46
 90
       50
102
RTVSPost2010PropOp46
 70
     0
102
RTVSPost2010Prop47
 90
       50
102
RTVSPost2010PropOp47
 70
     0
102
RTVSPost2010Prop48
 90
       50
102
RTVSPost2010PropOp48
 70
     0
102
RTVSPost2010Prop49
280
     0
102
RTVSPost2010PropOp49
 70
     0
102
RTVSPost2010Prop50
 90
       50
102
RTVSPost2010PropOp50
 70
     0
102
RTVSPost2010Prop51ColorIndex
 90
      256
102
RTVSPost2010Prop51ColorRGB
 90
-16777216
102
RTVSPost2010PropOp51
 70
     0
102
RTVSPost2010Prop52
140
1.0
102
RTVSPost2010PropOp52
 70
     0
102
RTVSPost2010Prop53
 90
        2
102
RTVSPost2010PropOp53
 70
     0
102
RTVSPost2010Prop54
  1
strokes_ogs.tif
102
RTVSPost2010PropOp54
 70
     0
102
RTVSPost2010Prop55
280
     0
102
RTVSPost2010PropOp55
 70
     0
102
RTVSPost2010Prop56
140
1.0
102
RTVSPost2010PropOp56
 70
     0
102
RTVSPost2010Prop57
140
1.0
102
RTVSPost2010PropOp57
 70
     0
  0
XRECORD
  5
22E
102
{ACAD_REACTORS
330
22D
102
}
330
22D
100
AcDbXrecord
280
     1
102
RTVSPropertyOp0
 70
     1
102
RTVSPropertyOp1
 70
     1
102
RTVSPropertyOp2
 70
     1
102
RTVSPropertyOp3
 70
     1
102
RTVSPropertyOp4
 70
     1
102
RTVSPropertyOp5
 70
     1
102
RTVSPropertyOp6
 70
     1
102
RTVSPropertyOp7
 70
     1
102
RTVSPropertyOp8
 70
     1
102
RTVSPropertyOp9
 70
     1
102
RTVSPropertyOp10
 70
     1
102
RTVSPropertyOp11
 70
     1
102
RTVSPropertyOp12
 70
     1
102
RTVSPropertyOp13
 70
     1
102
RTVSPropertyOp14
 70
     1
102
RTVSPropertyOp15
 70
     1
102
RTVSPropertyOp16
 70
     1
102
RTVSPropertyOp17
 70
     1
102
RTVSPropertyOp18
 70
     1
102
RTVSPropertyOp19
 70
     1
102
RTVSPropertyOp20
 70
     1
102
RTVSPropertyOp21
 70
     1
102
RTVSPropertyOp22
 70
     1
102
RTVSPropertyOp23
 70
     1
102
RTVSPropertyOp24
 70
     1
102
RTVSPropertyOp25
 70
     1
102
RTVSPropertyOp26
 70
     1
102
RTVSPropertyOp27
 70
     1
102
RTVSPropertyOp28
 70
     1
102
RTVSPropertyOp29
 70
     1
102
RTVSPropertyOp30
 70
     1
102
RTVSPropertyOp31
 70
     1
102
RTVSPropertyOp32
 70
     1
102
RTVSPropertyOp33
 70
     1
102
RTVSPropertyOp34
 70
     1
102
RTVSPropertyOp35
 70
     1
102
RTVSPropertyOp36
 70
     1
102
RTVSPropertyOp37
 70
     1
102
RTVSPropertyOp38
 70
     1
102
RTVSPropertyOp39
 70
     1
102
RTVSPropertyOp40
 70
     1
102
RTVSPropertyOp41
 70
     1
102
RTVSPropertyOp42
 70
     1
102
RTVSPropertyOp43
 70
     1
102
RTVSPropertyOp44
 70
     1
102
RTVSPropertyOp45
 70
     1
102
RTVSPropertyOp46
 70
     1
102
RTVSPropertyOp47
 70
     1
102
RTVSPropertyOp48
 70
     1
102
RTVSPropertyOp49
 70
     1
102
RTVSPropertyOp50
 70
     1
102
RTVSPropertyOp51
 70
     0
102
RTVSPropertyOp52
 70
     0
102
RTVSPropertyOp53
 70
     1
102
RTVSPropertyOp54
 70
     1
102
RTVSPropertyOp55
 70
     1
102
RTVSPropertyOp56
 70
     1
102
RTVSPropertyOp57
 70
     1
102
RTVSPost2010Prop28
280
     0
102
RTVSPost2010PropOp28
 70
     1
102
RTVSPost2010Prop29
280
     1
102
RTVSPost2010PropOp29
 70
     1
102
RTVSPost2010Prop30
280
     1
102
RTVSPost2010PropOp30
 70
     1
102
RTVSPost2010Prop31
280
     0
102
RTVSPost2010PropOp31
 70
     1
102
RTVSPost2010Prop32
280
     0
102
RTVSPost2010PropOp32
 70
     1
102
RTVSPost2010Prop33
280
     0
102
RTVSPost2010PropOp33
 70
     1
102
RTVSPost2010Prop34
280
     0
102
RTVSPost2010PropOp34
 70
     1
102
RTVSPost2010Prop35
280
     0
102
RTVSPost2010PropOp35
 70
     1
102
RTVSPost2010Prop36
280
     0
102
RTVSPost2010PropOp36
 70
     1
102
RTVSPost2010Prop37
 90
       50
102
RTVSPost2010PropOp37
 70
     1
102
RTVSPost2010Prop38
140
0.0
102
RTVSPost2010PropOp38
 70
     1
102
RTVSPost2010Prop39
140
1.0
102
RTVSPost2010PropOp39
 70
     1
102
RTVSPost2010Prop40
 90
        0
102
RTVSPost2010PropOp40
 70
     1
102
RTVSPost2010Prop41ColorIndex
 90
       18
102
RTVSPost2010Prop41ColorRGB
 90
        0
102
RTVSPost2010PropOp41
 70
     1
102
RTVSPost2010Prop42
 90
       50
102
RTVSPost2010PropOp42
 70
     1
102
RTVSPost2010Prop43
 90
        3
102
RTVSPost2010PropOp43
 70
     1
102
RTVSPost2010Prop44ColorIndex
 90
        5
102
RTVSPost2010Prop44ColorRGB
 90
      255
102
RTVSPost2010PropOp44
 70
     1
102
RTVSPost2010Prop45
280
     0
102
RTVSPost2010PropOp45
 70
     1
102
RTVSPost2010Prop46
 90
       50
102
RTVSPost2010PropOp46
 70
     1
102
RTVSPost2010Prop47
 90
       50
102
RTVSPost2010PropOp47
 70
     1
102
RTVSPost2010Prop48
 90
       50
102
RTVSPost2010PropOp48
 70
     1
102
RTVSPost2010Prop49
280
     0
102
RTVSPost2010PropOp49
 70
     1
102
RTVSPost2010Prop50
 90
       50
102
RTVSPost2010PropOp50
 70
     1
102
RTVSPost2010Prop51ColorIndex
 90
      256
102
RTVSPost2010Prop51ColorRGB
 90
-16777216
102
RTVSPost2010PropOp51
 70
     0
102
RTVSPost2010Prop52
140
1.0
102
RTVSPost2010PropOp52
 70
     0
102
RTVSPost2010Prop53
 90
        2
102
RTVSPost2010PropOp53
 70
     1
102
RTVSPost2010Prop54
  1
strokes_ogs.tif
102
RTVSPost2010PropOp54
 70
     1
102
RTVSPost2010Prop55
280
     0
102
RTVSPost2010PropOp55
 70
     1
102
RTVSPost2010Prop56
140
1.0
102
RTVSPost2010PropOp56
 70
     1
102
RTVSPost2010Prop57
140
1.0
102
RTVSPost2010PropOp57
 70
     1
  0
XRECORD
  5
212
102
{ACAD_REACTORS
330
211
102
}
330
211
100
AcDbXrecord
280
     1
102
RTVSPropertyOp0
 70
     1
102
RTVSPropertyOp1
 70
     1
102
RTVSPropertyOp2
 70
     1
102
RTVSPropertyOp3
 70
     1
102
RTVSPropertyOp4
 70
     1
102
RTVSPropertyOp5
 70
     1
102
RTVSPropertyOp6
 70
     1
102
RTVSPropertyOp7
 70
     1
102
RTVSPropertyOp8
 70
     1
102
RTVSPropertyOp9
 70
     1
102
RTVSPropertyOp10
 70
     1
102
RTVSPropertyOp11
 70
     1
102
RTVSPropertyOp12
 70
     1
102
RTVSPropertyOp13
 70
     1
102
RTVSPropertyOp14
 70
     1
102
RTVSPropertyOp15
 70
     1
102
RTVSPropertyOp16
 70
     1
102
RTVSPropertyOp17
 70
     1
102
RTVSPropertyOp18
 70
     1
102
RTVSPropertyOp19
 70
     1
102
RTVSPropertyOp20
 70
     1
102
RTVSPropertyOp21
 70
     1
102
RTVSPropertyOp22
 70
     1
102
RTVSPropertyOp23
 70
     1
102
RTVSPropertyOp24
 70
     1
102
RTVSPropertyOp25
 70
     1
102
RTVSPropertyOp26
 70
     1
102
RTVSPropertyOp27
 70
     1
102
RTVSPropertyOp28
 70
     1
102
RTVSPropertyOp29
 70
     1
102
RTVSPropertyOp30
 70
     1
102
RTVSPropertyOp31
 70
     1
102
RTVSPropertyOp32
 70
     1
102
RTVSPropertyOp33
 70
     1
102
RTVSPropertyOp34
 70
     1
102
RTVSPropertyOp35
 70
     1
102
RTVSPropertyOp36
 70
     1
102
RTVSPropertyOp37
 70
     1
102
RTVSPropertyOp38
 70
     1
102
RTVSPropertyOp39
 70
     1
102
RTVSPropertyOp40
 70
     1
102
RTVSPropertyOp41
 70
     1
102
RTVSPropertyOp42
 70
     1
102
RTVSPropertyOp43
 70
     1
102
RTVSPropertyOp44
 70
     1
102
RTVSPropertyOp45
 70
     1
102
RTVSPropertyOp46
 70
     1
102
RTVSPropertyOp47
 70
     1
102
RTVSPropertyOp48
 70
     1
102
RTVSPropertyOp49
 70
     1
102
RTVSPropertyOp50
 70
     1
102
RTVSPropertyOp51
 70
     0
102
RTVSPropertyOp52
 70
     0
102
RTVSPropertyOp53
 70
     1
102
RTVSPropertyOp54
 70
     1
102
RTVSPropertyOp55
 70
     1
102
RTVSPropertyOp56
 70
     1
102
RTVSPropertyOp57
 70
     1
102
RTVSPost2010Prop28
280
     0
102
RTVSPost2010PropOp28
 70
     1
102
RTVSPost2010Prop29
280
     1
102
RTVSPost2010PropOp29
 70
     1
102
RTVSPost2010Prop30
280
     1
102
RTVSPost2010PropOp30
 70
     1
102
RTVSPost2010Prop31
280
     0
102
RTVSPost2010PropOp31
 70
     1
102
RTVSPost2010Prop32
280
     0
102
RTVSPost2010PropOp32
 70
     1
102
RTVSPost2010Prop33
280
     0
102
RTVSPost2010PropOp33
 70
     1
102
RTVSPost2010Prop34
280
     0
102
RTVSPost2010PropOp34
 70
     1
102
RTVSPost2010Prop35
280
     0
102
RTVSPost2010PropOp35
 70
     1
102
RTVSPost2010Prop36
280
     0
102
RTVSPost2010PropOp36
 70
     1
102
RTVSPost2010Prop37
 90
       50
102
RTVSPost2010PropOp37
 70
     1
102
RTVSPost2010Prop38
140
0.0
102
RTVSPost2010PropOp38
 70
     1
102
RTVSPost2010Prop39
140
1.0
102
RTVSPost2010PropOp39
 70
     1
102
RTVSPost2010Prop40
 90
        0
102
RTVSPost2010PropOp40
 70
     1
102
RTVSPost2010Prop41ColorIndex
 90
       18
102
RTVSPost2010Prop41ColorRGB
 90
        0
102
RTVSPost2010PropOp41
 70
     1
102
RTVSPost2010Prop42
 90
       50
102
RTVSPost2010PropOp42
 70
     1
102
RTVSPost2010Prop43
 90
        3
102
RTVSPost2010PropOp43
 70
     1
102
RTVSPost2010Prop44ColorIndex
 90
        5
102
RTVSPost2010Prop44ColorRGB
 90
      255
102
RTVSPost2010PropOp44
 70
     1
102
RTVSPost2010Prop45
280
     0
102
RTVSPost2010PropOp45
 70
     1
102
RTVSPost2010Prop46
 90
       50
102
RTVSPost2010PropOp46
 70
     1
102
RTVSPost2010Prop47
 90
       50
102
RTVSPost2010PropOp47
 70
     1
102
RTVSPost2010Prop48
 90
       50
102
RTVSPost2010PropOp48
 70
     1
102
RTVSPost2010Prop49
280
     0
102
RTVSPost2010PropOp49
 70
     1
102
RTVSPost2010Prop50
 90
       50
102
RTVSPost2010PropOp50
 70
     1
102
RTVSPost2010Prop51ColorIndex
 90
      256
102
RTVSPost2010Prop51ColorRGB
 90
-16777216
102
RTVSPost2010PropOp51
 70
     0
102
RTVSPost2010Prop52
140
1.0
102
RTVSPost2010PropOp52
 70
     0
102
RTVSPost2010Prop53
 90
        2
102
RTVSPost2010PropOp53
 70
     1
102
RTVSPost2010Prop54
  1
strokes_ogs.tif
102
RTVSPost2010PropOp54
 70
     1
102
RTVSPost2010Prop55
280
     0
102
RTVSPost2010PropOp55
 70
     1
102
RTVSPost2010Prop56
140
1.0
102
RTVSPost2010PropOp56
 70
     1
102
RTVSPost2010Prop57
140
1.0
102
RTVSPost2010PropOp57
 70
     1
  0
XRECORD
  5
214
102
{ACAD_REACTORS
330
213
102
}
330
213
100
AcDbXrecord
280
     1
102
RTVSPropertyOp0
 70
     1
102
RTVSPropertyOp1
 70
     1
102
RTVSPropertyOp2
 70
     1
102
RTVSPropertyOp3
 70
     1
102
RTVSPropertyOp4
 70
     1
102
RTVSPropertyOp5
 70
     1
102
RTVSPropertyOp6
 70
     1
102
RTVSPropertyOp7
 70
     1
102
RTVSPropertyOp8
 70
     1
102
RTVSPropertyOp9
 70
     1
102
RTVSPropertyOp10
 70
     1
102
RTVSPropertyOp11
 70
     1
102
RTVSPropertyOp12
 70
     1
102
RTVSPropertyOp13
 70
     1
102
RTVSPropertyOp14
 70
     1
102
RTVSPropertyOp15
 70
     1
102
RTVSPropertyOp16
 70
     1
102
RTVSPropertyOp17
 70
     1
102
RTVSPropertyOp18
 70
     1
102
RTVSPropertyOp19
 70
     1
102
RTVSPropertyOp20
 70
     1
102
RTVSPropertyOp21
 70
     1
102
RTVSPropertyOp22
 70
     1
102
RTVSPropertyOp23
 70
     1
102
RTVSPropertyOp24
 70
     1
102
RTVSPropertyOp25
 70
     1
102
RTVSPropertyOp26
 70
     1
102
RTVSPropertyOp27
 70
     1
102
RTVSPropertyOp28
 70
     1
102
RTVSPropertyOp29
 70
     1
102
RTVSPropertyOp30
 70
     1
102
RTVSPropertyOp31
 70
     1
102
RTVSPropertyOp32
 70
     1
102
RTVSPropertyOp33
 70
     1
102
RTVSPropertyOp34
 70
     1
102
RTVSPropertyOp35
 70
     1
102
RTVSPropertyOp36
 70
     1
102
RTVSPropertyOp37
 70
     1
102
RTVSPropertyOp38
 70
     1
102
RTVSPropertyOp39
 70
     1
102
RTVSPropertyOp40
 70
     1
102
RTVSPropertyOp41
 70
     1
102
RTVSPropertyOp42
 70
     1
102
RTVSPropertyOp43
 70
     1
102
RTVSPropertyOp44
 70
     1
102
RTVSPropertyOp45
 70
     1
102
RTVSPropertyOp46
 70
     1
102
RTVSPropertyOp47
 70
     1
102
RTVSPropertyOp48
 70
     1
102
RTVSPropertyOp49
 70
     1
102
RTVSPropertyOp50
 70
     1
102
RTVSPropertyOp51
 70
     0
102
RTVSPropertyOp52
 70
     0
102
RTVSPropertyOp53
 70
     1
102
RTVSPropertyOp54
 70
     1
102
RTVSPropertyOp55
 70
     1
102
RTVSPropertyOp56
 70
     1
102
RTVSPropertyOp57
 70
     1
102
RTVSPost2010Prop28
280
     0
102
RTVSPost2010PropOp28
 70
     1
102
RTVSPost2010Prop29
280
     1
102
RTVSPost2010PropOp29
 70
     1
102
RTVSPost2010Prop30
280
     1
102
RTVSPost2010PropOp30
 70
     1
102
RTVSPost2010Prop31
280
     0
102
RTVSPost2010PropOp31
 70
     1
102
RTVSPost2010Prop32
280
     0
102
RTVSPost2010PropOp32
 70
     1
102
RTVSPost2010Prop33
280
     0
102
RTVSPost2010PropOp33
 70
     1
102
RTVSPost2010Prop34
280
     0
102
RTVSPost2010PropOp34
 70
     1
102
RTVSPost2010Prop35
280
     0
102
RTVSPost2010PropOp35
 70
     1
102
RTVSPost2010Prop36
280
     0
102
RTVSPost2010PropOp36
 70
     1
102
RTVSPost2010Prop37
 90
       50
102
RTVSPost2010PropOp37
 70
     1
102
RTVSPost2010Prop38
140
0.0
102
RTVSPost2010PropOp38
 70
     1
102
RTVSPost2010Prop39
140
1.0
102
RTVSPost2010PropOp39
 70
     1
102
RTVSPost2010Prop40
 90
        0
102
RTVSPost2010PropOp40
 70
     1
102
RTVSPost2010Prop41ColorIndex
 90
       18
102
RTVSPost2010Prop41ColorRGB
 90
        0
102
RTVSPost2010PropOp41
 70
     1
102
RTVSPost2010Prop42
 90
       50
102
RTVSPost2010PropOp42
 70
     1
102
RTVSPost2010Prop43
 90
        3
102
RTVSPost2010PropOp43
 70
     1
102
RTVSPost2010Prop44ColorIndex
 90
        5
102
RTVSPost2010Prop44ColorRGB
 90
      255
102
RTVSPost2010PropOp44
 70
     1
102
RTVSPost2010Prop45
280
     0
102
RTVSPost2010PropOp45
 70
     1
102
RTVSPost2010Prop46
 90
       50
102
RTVSPost2010PropOp46
 70
     1
102
RTVSPost2010Prop47
 90
       50
102
RTVSPost2010PropOp47
 70
     1
102
RTVSPost2010Prop48
 90
       50
102
RTVSPost2010PropOp48
 70
     1
102
RTVSPost2010Prop49
280
     0
102
RTVSPost2010PropOp49
 70
     1
102
RTVSPost2010Prop50
 90
       50
102
RTVSPost2010PropOp50
 70
     1
102
RTVSPost2010Prop51ColorIndex
 90
      256
102
RTVSPost2010Prop51ColorRGB
 90
-16777216
102
RTVSPost2010PropOp51
 70
     0
102
RTVSPost2010Prop52
140
1.0
102
RTVSPost2010PropOp52
 70
     0
102
RTVSPost2010Prop53
 90
        2
102
RTVSPost2010PropOp53
 70
     1
102
RTVSPost2010Prop54
  1
strokes_ogs.tif
102
RTVSPost2010PropOp54
 70
     1
102
RTVSPost2010Prop55
280
     0
102
RTVSPost2010PropOp55
 70
     1
102
RTVSPost2010Prop56
140
1.0
102
RTVSPost2010PropOp56
 70
     1
102
RTVSPost2010Prop57
140
1.0
102
RTVSPost2010PropOp57
 70
     1
  0
XRECORD
  5
216
102
{ACAD_REACTORS
330
215
102
}
330
215
100
AcDbXrecord
280
     1
102
RTVSPropertyOp0
 70
     1
102
RTVSPropertyOp1
 70
     1
102
RTVSPropertyOp2
 70
     1
102
RTVSPropertyOp3
 70
     1
102
RTVSPropertyOp4
 70
     1
102
RTVSPropertyOp5
 70
     1
102
RTVSPropertyOp6
 70
     1
102
RTVSPropertyOp7
 70
     1
102
RTVSPropertyOp8
 70
     1
102
RTVSPropertyOp9
 70
     1
102
RTVSPropertyOp10
 70
     1
102
RTVSPropertyOp11
 70
     1
102
RTVSPropertyOp12
 70
     1
102
RTVSPropertyOp13
 70
     1
102
RTVSPropertyOp14
 70
     1
102
RTVSPropertyOp15
 70
     1
102
RTVSPropertyOp16
 70
     1
102
RTVSPropertyOp17
 70
     1
102
RTVSPropertyOp18
 70
     1
102
RTVSPropertyOp19
 70
     1
102
RTVSPropertyOp20
 70
     1
102
RTVSPropertyOp21
 70
     1
102
RTVSPropertyOp22
 70
     1
102
RTVSPropertyOp23
 70
     1
102
RTVSPropertyOp24
 70
     1
102
RTVSPropertyOp25
 70
     1
102
RTVSPropertyOp26
 70
     1
102
RTVSPropertyOp27
 70
     1
102
RTVSPropertyOp28
 70
     1
102
RTVSPropertyOp29
 70
     1
102
RTVSPropertyOp30
 70
     1
102
RTVSPropertyOp31
 70
     1
102
RTVSPropertyOp32
 70
     1
102
RTVSPropertyOp33
 70
     1
102
RTVSPropertyOp34
 70
     1
102
RTVSPropertyOp35
 70
     1
102
RTVSPropertyOp36
 70
     1
102
RTVSPropertyOp37
 70
     1
102
RTVSPropertyOp38
 70
     1
102
RTVSPropertyOp39
 70
     1
102
RTVSPropertyOp40
 70
     1
102
RTVSPropertyOp41
 70
     1
102
RTVSPropertyOp42
 70
     1
102
RTVSPropertyOp43
 70
     1
102
RTVSPropertyOp44
 70
     1
102
RTVSPropertyOp45
 70
     1
102
RTVSPropertyOp46
 70
     1
102
RTVSPropertyOp47
 70
     1
102
RTVSPropertyOp48
 70
     1
102
RTVSPropertyOp49
 70
     1
102
RTVSPropertyOp50
 70
     1
102
RTVSPropertyOp51
 70
     0
102
RTVSPropertyOp52
 70
     0
102
RTVSPropertyOp53
 70
     1
102
RTVSPropertyOp54
 70
     1
102
RTVSPropertyOp55
 70
     1
102
RTVSPropertyOp56
 70
     1
102
RTVSPropertyOp57
 70
     1
102
RTVSPost2010Prop28
280
     0
102
RTVSPost2010PropOp28
 70
     1
102
RTVSPost2010Prop29
280
     1
102
RTVSPost2010PropOp29
 70
     1
102
RTVSPost2010Prop30
280
     1
102
RTVSPost2010PropOp30
 70
     1
102
RTVSPost2010Prop31
280
     0
102
RTVSPost2010PropOp31
 70
     1
102
RTVSPost2010Prop32
280
     0
102
RTVSPost2010PropOp32
 70
     1
102
RTVSPost2010Prop33
280
     0
102
RTVSPost2010PropOp33
 70
     1
102
RTVSPost2010Prop34
280
     0
102
RTVSPost2010PropOp34
 70
     1
102
RTVSPost2010Prop35
280
     0
102
RTVSPost2010PropOp35
 70
     1
102
RTVSPost2010Prop36
280
     0
102
RTVSPost2010PropOp36
 70
     1
102
RTVSPost2010Prop37
 90
       50
102
RTVSPost2010PropOp37
 70
     1
102
RTVSPost2010Prop38
140
0.0
102
RTVSPost2010PropOp38
 70
     1
102
RTVSPost2010Prop39
140
1.0
102
RTVSPost2010PropOp39
 70
     1
102
RTVSPost2010Prop40
 90
        0
102
RTVSPost2010PropOp40
 70
     1
102
RTVSPost2010Prop41ColorIndex
 90
       18
102
RTVSPost2010Prop41ColorRGB
 90
        0
102
RTVSPost2010PropOp41
 70
     1
102
RTVSPost2010Prop42
 90
       50
102
RTVSPost2010PropOp42
 70
     1
102
RTVSPost2010Prop43
 90
        3
102
RTVSPost2010PropOp43
 70
     1
102
RTVSPost2010Prop44ColorIndex
 90
        5
102
RTVSPost2010Prop44ColorRGB
 90
      255
102
RTVSPost2010PropOp44
 70
     1
102
RTVSPost2010Prop45
280
     0
102
RTVSPost2010PropOp45
 70
     1
102
RTVSPost2010Prop46
 90
       50
102
RTVSPost2010PropOp46
 70
     1
102
RTVSPost2010Prop47
 90
       50
102
RTVSPost2010PropOp47
 70
     1
102
RTVSPost2010Prop48
 90
       50
102
RTVSPost2010PropOp48
 70
     1
102
RTVSPost2010Prop49
280
     0
102
RTVSPost2010PropOp49
 70
     1
102
RTVSPost2010Prop50
 90
       50
102
RTVSPost2010PropOp50
 70
     1
102
RTVSPost2010Prop51ColorIndex
 90
      256
102
RTVSPost2010Prop51ColorRGB
 90
-16777216
102
RTVSPost2010PropOp51
 70
     0
102
RTVSPost2010Prop52
140
1.0
102
RTVSPost2010PropOp52
 70
     0
102
RTVSPost2010Prop53
 90
        2
102
RTVSPost2010PropOp53
 70
     1
102
RTVSPost2010Prop54
  1
strokes_ogs.tif
102
RTVSPost2010PropOp54
 70
     1
102
RTVSPost2010Prop55
280
     0
102
RTVSPost2010PropOp55
 70
     1
102
RTVSPost2010Prop56
140
1.0
102
RTVSPost2010PropOp56
 70
     1
102
RTVSPost2010Prop57
140
1.0
102
RTVSPost2010PropOp57
 70
     1
  0
XRECORD
  5
218
102
{ACAD_REACTORS
330
217
102
}
330
217
100
AcDbXrecord
280
     1
102
RTVSPropertyOp0
 70
     1
102
RTVSPropertyOp1
 70
     1
102
RTVSPropertyOp2
 70
     1
102
RTVSPropertyOp3
 70
     1
102
RTVSPropertyOp4
 70
     1
102
RTVSPropertyOp5
 70
     1
102
RTVSPropertyOp6
 70
     1
102
RTVSPropertyOp7
 70
     1
102
RTVSPropertyOp8
 70
     1
102
RTVSPropertyOp9
 70
     1
102
RTVSPropertyOp10
 70
     1
102
RTVSPropertyOp11
 70
     1
102
RTVSPropertyOp12
 70
     1
102
RTVSPropertyOp13
 70
     1
102
RTVSPropertyOp14
 70
     1
102
RTVSPropertyOp15
 70
     1
102
RTVSPropertyOp16
 70
     1
102
RTVSPropertyOp17
 70
     1
102
RTVSPropertyOp18
 70
     1
102
RTVSPropertyOp19
 70
     1
102
RTVSPropertyOp20
 70
     1
102
RTVSPropertyOp21
 70
     1
102
RTVSPropertyOp22
 70
     1
102
RTVSPropertyOp23
 70
     1
102
RTVSPropertyOp24
 70
     1
102
RTVSPropertyOp25
 70
     1
102
RTVSPropertyOp26
 70
     1
102
RTVSPropertyOp27
 70
     1
102
RTVSPropertyOp28
 70
     1
102
RTVSPropertyOp29
 70
     1
102
RTVSPropertyOp30
 70
     1
102
RTVSPropertyOp31
 70
     1
102
RTVSPropertyOp32
 70
     1
102
RTVSPropertyOp33
 70
     1
102
RTVSPropertyOp34
 70
     1
102
RTVSPropertyOp35
 70
     1
102
RTVSPropertyOp36
 70
     1
102
RTVSPropertyOp37
 70
     1
102
RTVSPropertyOp38
 70
     1
102
RTVSPropertyOp39
 70
     1
102
RTVSPropertyOp40
 70
     1
102
RTVSPropertyOp41
 70
     1
102
RTVSPropertyOp42
 70
     1
102
RTVSPropertyOp43
 70
     1
102
RTVSPropertyOp44
 70
     1
102
RTVSPropertyOp45
 70
     1
102
RTVSPropertyOp46
 70
     1
102
RTVSPropertyOp47
 70
     1
102
RTVSPropertyOp48
 70
     1
102
RTVSPropertyOp49
 70
     1
102
RTVSPropertyOp50
 70
     1
102
RTVSPropertyOp51
 70
     0
102
RTVSPropertyOp52
 70
     0
102
RTVSPropertyOp53
 70
     1
102
RTVSPropertyOp54
 70
     1
102
RTVSPropertyOp55
 70
     1
102
RTVSPropertyOp56
 70
     1
102
RTVSPropertyOp57
 70
     1
102
RTVSPost2010Prop28
280
     0
102
RTVSPost2010PropOp28
 70
     1
102
RTVSPost2010Prop29
280
     1
102
RTVSPost2010PropOp29
 70
     1
102
RTVSPost2010Prop30
280
     1
102
RTVSPost2010PropOp30
 70
     1
102
RTVSPost2010Prop31
280
     0
102
RTVSPost2010PropOp31
 70
     1
102
RTVSPost2010Prop32
280
     0
102
RTVSPost2010PropOp32
 70
     1
102
RTVSPost2010Prop33
280
     0
102
RTVSPost2010PropOp33
 70
     1
102
RTVSPost2010Prop34
280
     0
102
RTVSPost2010PropOp34
 70
     1
102
RTVSPost2010Prop35
280
     0
102
RTVSPost2010PropOp35
 70
     1
102
RTVSPost2010Prop36
280
     0
102
RTVSPost2010PropOp36
 70
     1
102
RTVSPost2010Prop37
 90
       50
102
RTVSPost2010PropOp37
 70
     1
102
RTVSPost2010Prop38
140
0.0
102
RTVSPost2010PropOp38
 70
     1
102
RTVSPost2010Prop39
140
1.0
102
RTVSPost2010PropOp39
 70
     1
102
RTVSPost2010Prop40
 90
        0
102
RTVSPost2010PropOp40
 70
     1
102
RTVSPost2010Prop41ColorIndex
 90
       18
102
RTVSPost2010Prop41ColorRGB
 90
        0
102
RTVSPost2010PropOp41
 70
     1
102
RTVSPost2010Prop42
 90
       50
102
RTVSPost2010PropOp42
 70
     1
102
RTVSPost2010Prop43
 90
        3
102
RTVSPost2010PropOp43
 70
     1
102
RTVSPost2010Prop44ColorIndex
 90
        5
102
RTVSPost2010Prop44ColorRGB
 90
      255
102
RTVSPost2010PropOp44
 70
     1
102
RTVSPost2010Prop45
280
     0
102
RTVSPost2010PropOp45
 70
     1
102
RTVSPost2010Prop46
 90
       50
102
RTVSPost2010PropOp46
 70
     1
102
RTVSPost2010Prop47
 90
       50
102
RTVSPost2010PropOp47
 70
     1
102
RTVSPost2010Prop48
 90
       50
102
RTVSPost2010PropOp48
 70
     1
102
RTVSPost2010Prop49
280
     0
102
RTVSPost2010PropOp49
 70
     1
102
RTVSPost2010Prop50
 90
       50
102
RTVSPost2010PropOp50
 70
     1
102
RTVSPost2010Prop51ColorIndex
 90
      256
102
RTVSPost2010Prop51ColorRGB
 90
-16777216
102
RTVSPost2010PropOp51
 70
     0
102
RTVSPost2010Prop52
140
1.0
102
RTVSPost2010PropOp52
 70
     0
102
RTVSPost2010Prop53
 90
        2
102
RTVSPost2010PropOp53
 70
     1
102
RTVSPost2010Prop54
  1
strokes_ogs.tif
102
RTVSPost2010PropOp54
 70
     1
102
RTVSPost2010Prop55
280
     0
102
RTVSPost2010PropOp55
 70
     1
102
RTVSPost2010Prop56
140
1.0
102
RTVSPost2010PropOp56
 70
     1
102
RTVSPost2010Prop57
140
1.0
102
RTVSPost2010PropOp57
 70
     1
  0
XRECORD
  5
21E
102
{ACAD_REACTORS
330
21D
102
}
330
21D
100
AcDbXrecord
280
     1
102
RTVSPropertyOp0
 70
     1
102
RTVSPropertyOp1
 70
     1
102
RTVSPropertyOp2
 70
     1
102
RTVSPropertyOp3
 70
     1
102
RTVSPropertyOp4
 70
     1
102
RTVSPropertyOp5
 70
     1
102
RTVSPropertyOp6
 70
     1
102
RTVSPropertyOp7
 70
     1
102
RTVSPropertyOp8
 70
     1
102
RTVSPropertyOp9
 70
     1
102
RTVSPropertyOp10
 70
     1
102
RTVSPropertyOp11
 70
     1
102
RTVSPropertyOp12
 70
     1
102
RTVSPropertyOp13
 70
     1
102
RTVSPropertyOp14
 70
     1
102
RTVSPropertyOp15
 70
     1
102
RTVSPropertyOp16
 70
     1
102
RTVSPropertyOp17
 70
     1
102
RTVSPropertyOp18
 70
     1
102
RTVSPropertyOp19
 70
     1
102
RTVSPropertyOp20
 70
     1
102
RTVSPropertyOp21
 70
     1
102
RTVSPropertyOp22
 70
     1
102
RTVSPropertyOp23
 70
     1
102
RTVSPropertyOp24
 70
     1
102
RTVSPropertyOp25
 70
     1
102
RTVSPropertyOp26
 70
     1
102
RTVSPropertyOp27
 70
     1
102
RTVSPropertyOp28
 70
     1
102
RTVSPropertyOp29
 70
     1
102
RTVSPropertyOp30
 70
     1
102
RTVSPropertyOp31
 70
     1
102
RTVSPropertyOp32
 70
     1
102
RTVSPropertyOp33
 70
     1
102
RTVSPropertyOp34
 70
     1
102
RTVSPropertyOp35
 70
     1
102
RTVSPropertyOp36
 70
     1
102
RTVSPropertyOp37
 70
     1
102
RTVSPropertyOp38
 70
     1
102
RTVSPropertyOp39
 70
     1
102
RTVSPropertyOp40
 70
     1
102
RTVSPropertyOp41
 70
     1
102
RTVSPropertyOp42
 70
     1
102
RTVSPropertyOp43
 70
     1
102
RTVSPropertyOp44
 70
     1
102
RTVSPropertyOp45
 70
     1
102
RTVSPropertyOp46
 70
     1
102
RTVSPropertyOp47
 70
     1
102
RTVSPropertyOp48
 70
     1
102
RTVSPropertyOp49
 70
     1
102
RTVSPropertyOp50
 70
     1
102
RTVSPropertyOp51
 70
     0
102
RTVSPropertyOp52
 70
     0
102
RTVSPropertyOp53
 70
     1
102
RTVSPropertyOp54
 70
     1
102
RTVSPropertyOp55
 70
     1
102
RTVSPropertyOp56
 70
     1
102
RTVSPropertyOp57
 70
     1
102
RTVSPost2010Prop28
280
     0
102
RTVSPost2010PropOp28
 70
     1
102
RTVSPost2010Prop29
280
     1
102
RTVSPost2010PropOp29
 70
     1
102
RTVSPost2010Prop30
280
     1
102
RTVSPost2010PropOp30
 70
     1
102
RTVSPost2010Prop31
280
     0
102
RTVSPost2010PropOp31
 70
     1
102
RTVSPost2010Prop32
280
     0
102
RTVSPost2010PropOp32
 70
     1
102
RTVSPost2010Prop33
280
     0
102
RTVSPost2010PropOp33
 70
     1
102
RTVSPost2010Prop34
280
     0
102
RTVSPost2010PropOp34
 70
     1
102
RTVSPost2010Prop35
280
     0
102
RTVSPost2010PropOp35
 70
     1
102
RTVSPost2010Prop36
280
     0
102
RTVSPost2010PropOp36
 70
     1
102
RTVSPost2010Prop37
 90
       50
102
RTVSPost2010PropOp37
 70
     1
102
RTVSPost2010Prop38
140
0.0
102
RTVSPost2010PropOp38
 70
     1
102
RTVSPost2010Prop39
140
1.0
102
RTVSPost2010PropOp39
 70
     1
102
RTVSPost2010Prop40
 90
        0
102
RTVSPost2010PropOp40
 70
     1
102
RTVSPost2010Prop41ColorIndex
 90
       18
102
RTVSPost2010Prop41ColorRGB
 90
        0
102
RTVSPost2010PropOp41
 70
     1
102
RTVSPost2010Prop42
 90
       50
102
RTVSPost2010PropOp42
 70
     1
102
RTVSPost2010Prop43
 90
        3
102
RTVSPost2010PropOp43
 70
     1
102
RTVSPost2010Prop44ColorIndex
 90
        5
102
RTVSPost2010Prop44ColorRGB
 90
      255
102
RTVSPost2010PropOp44
 70
     1
102
RTVSPost2010Prop45
280
     0
102
RTVSPost2010PropOp45
 70
     1
102
RTVSPost2010Prop46
 90
       50
102
RTVSPost2010PropOp46
 70
     1
102
RTVSPost2010Prop47
 90
       50
102
RTVSPost2010PropOp47
 70
     1
102
RTVSPost2010Prop48
 90
       50
102
RTVSPost2010PropOp48
 70
     1
102
RTVSPost2010Prop49
280
     0
102
RTVSPost2010PropOp49
 70
     1
102
RTVSPost2010Prop50
 90
       50
102
RTVSPost2010PropOp50
 70
     1
102
RTVSPost2010Prop51ColorIndex
 90
      256
102
RTVSPost2010Prop51ColorRGB
 90
-16777216
102
RTVSPost2010PropOp51
 70
     0
102
RTVSPost2010Prop52
140
1.0
102
RTVSPost2010PropOp52
 70
     0
102
RTVSPost2010Prop53
 90
        2
102
RTVSPost2010PropOp53
 70
     1
102
RTVSPost2010Prop54
  1
strokes_ogs.tif
102
RTVSPost2010PropOp54
 70
     1
102
RTVSPost2010Prop55
280
     0
102
RTVSPost2010PropOp55
 70
     1
102
RTVSPost2010Prop56
140
1.0
102
RTVSPost2010PropOp56
 70
     1
102
RTVSPost2010Prop57
140
1.0
102
RTVSPost2010PropOp57
 70
     1
  0
XRECORD
  5
232
102
{ACAD_REACTORS
330
231
102
}
330
231
100
AcDbXrecord
280
     1
102
RTVSPropertyOp0
 70
     0
102
RTVSPropertyOp1
 70
     0
102
RTVSPropertyOp2
 70
     0
102
RTVSPropertyOp3
 70
     0
102
RTVSPropertyOp4
 70
     0
102
RTVSPropertyOp5
 70
     0
102
RTVSPropertyOp6
 70
     0
102
RTVSPropertyOp7
 70
     0
102
RTVSPropertyOp8
 70
     0
102
RTVSPropertyOp9
 70
     0
102
RTVSPropertyOp10
 70
     0
102
RTVSPropertyOp11
 70
     0
102
RTVSPropertyOp12
 70
     0
102
RTVSPropertyOp13
 70
     0
102
RTVSPropertyOp14
 70
     2
102
RTVSPropertyOp15
 70
     0
102
RTVSPropertyOp16
 70
     0
102
RTVSPropertyOp17
 70
     0
102
RTVSPropertyOp18
 70
     0
102
RTVSPropertyOp19
 70
     0
102
RTVSPropertyOp20
 70
     0
102
RTVSPropertyOp21
 70
     0
102
RTVSPropertyOp22
 70
     0
102
RTVSPropertyOp23
 70
     0
102
RTVSPropertyOp24
 70
     0
102
RTVSPropertyOp25
 70
     0
102
RTVSPropertyOp26
 70
     0
102
RTVSPropertyOp27
 70
     0
102
RTVSPropertyOp28
 70
     0
102
RTVSPropertyOp29
 70
     0
102
RTVSPropertyOp30
 70
     0
102
RTVSPropertyOp31
 70
     0
102
RTVSPropertyOp32
 70
     0
102
RTVSPropertyOp33
 70
     0
102
RTVSPropertyOp34
 70
     0
102
RTVSPropertyOp35
 70
     0
102
RTVSPropertyOp36
 70
     0
102
RTVSPropertyOp37
 70
     0
102
RTVSPropertyOp38
 70
     0
102
RTVSPropertyOp39
 70
     0
102
RTVSPropertyOp40
 70
     0
102
RTVSPropertyOp41
 70
     0
102
RTVSPropertyOp42
 70
     0
102
RTVSPropertyOp43
 70
     0
102
RTVSPropertyOp44
 70
     0
102
RTVSPropertyOp45
 70
     0
102
RTVSPropertyOp46
 70
     0
102
RTVSPropertyOp47
 70
     0
102
RTVSPropertyOp48
 70
     0
102
RTVSPropertyOp49
 70
     0
102
RTVSPropertyOp50
 70
     0
102
RTVSPropertyOp51
 70
     0
102
RTVSPropertyOp52
 70
     0
102
RTVSPropertyOp53
 70
     0
102
RTVSPropertyOp54
 70
     0
102
RTVSPropertyOp55
 70
     0
102
RTVSPropertyOp56
 70
     0
102
RTVSPropertyOp57
 70
     0
102
RTVSPost2010Prop28
280
     0
102
RTVSPost2010PropOp28
 70
     0
102
RTVSPost2010Prop29
280
     1
102
RTVSPost2010PropOp29
 70
     0
102
RTVSPost2010Prop30
280
     1
102
RTVSPost2010PropOp30
 70
     0
102
RTVSPost2010Prop31
280
     0
102
RTVSPost2010PropOp31
 70
     0
102
RTVSPost2010Prop32
280
     0
102
RTVSPost2010PropOp32
 70
     0
102
RTVSPost2010Prop33
280
     0
102
RTVSPost2010PropOp33
 70
     0
102
RTVSPost2010Prop34
280
     0
102
RTVSPost2010PropOp34
 70
     0
102
RTVSPost2010Prop35
280
     0
102
RTVSPost2010PropOp35
 70
     0
102
RTVSPost2010Prop36
280
     0
102
RTVSPost2010PropOp36
 70
     0
102
RTVSPost2010Prop37
 90
       50
102
RTVSPost2010PropOp37
 70
     0
102
RTVSPost2010Prop38
140
0.0
102
RTVSPost2010PropOp38
 70
     0
102
RTVSPost2010Prop39
140
1.0
102
RTVSPost2010PropOp39
 70
     0
102
RTVSPost2010Prop40
 90
        0
102
RTVSPost2010PropOp40
 70
     0
102
RTVSPost2010Prop41ColorIndex
 90
       18
102
RTVSPost2010Prop41ColorRGB
 90
        0
102
RTVSPost2010PropOp41
 70
     0
102
RTVSPost2010Prop42
 90
       50
102
RTVSPost2010PropOp42
 70
     0
102
RTVSPost2010Prop43
 90
        3
102
RTVSPost2010PropOp43
 70
     0
102
RTVSPost2010Prop44ColorIndex
 90
        5
102
RTVSPost2010Prop44ColorRGB
 90
      255
102
RTVSPost2010PropOp44
 70
     0
102
RTVSPost2010Prop45
280
     0
102
RTVSPost2010PropOp45
 70
     0
102
RTVSPost2010Prop46
 90
       50
102
RTVSPost2010PropOp46
 70
     0
102
RTVSPost2010Prop47
 90
       50
102
RTVSPost2010PropOp47
 70
     0
102
RTVSPost2010Prop48
 90
       50
102
RTVSPost2010PropOp48
 70
     0
102
RTVSPost2010Prop49
280
     0
102
RTVSPost2010PropOp49
 70
     0
102
RTVSPost2010Prop50
 90
       50
102
RTVSPost2010PropOp50
 70
     0
102
RTVSPost2010Prop51ColorIndex
 90
      256
102
RTVSPost2010Prop51ColorRGB
 90
-16777216
102
RTVSPost2010PropOp51
 70
     0
102
RTVSPost2010Prop52
140
1.0
102
RTVSPost2010PropOp52
 70
     0
102
RTVSPost2010Prop53
 90
        2
102
RTVSPost2010PropOp53
 70
     0
102
RTVSPost2010Prop54
  1
strokes_ogs.tif
102
RTVSPost2010PropOp54
 70
     0
102
RTVSPost2010Prop55
280
     0
102
RTVSPost2010PropOp55
 70
     0
102
RTVSPost2010Prop56
140
1.0
102
RTVSPost2010PropOp56
 70
     0
102
RTVSPost2010Prop57
140
1.0
102
RTVSPost2010PropOp57
 70
     0
  0
XRECORD
  5
22C
102
{ACAD_REACTORS
330
22B
102
}
330
22B
100
AcDbXrecord
280
     1
102
RTVSPropertyOp0
 70
     1
102
RTVSPropertyOp1
 70
     1
102
RTVSPropertyOp2
 70
     1
102
RTVSPropertyOp3
 70
     1
102
RTVSPropertyOp4
 70
     1
102
RTVSPropertyOp5
 70
     1
102
RTVSPropertyOp6
 70
     1
102
RTVSPropertyOp7
 70
     1
102
RTVSPropertyOp8
 70
     1
102
RTVSPropertyOp9
 70
     1
102
RTVSPropertyOp10
 70
     1
102
RTVSPropertyOp11
 70
     1
102
RTVSPropertyOp12
 70
     1
102
RTVSPropertyOp13
 70
     1
102
RTVSPropertyOp14
 70
     1
102
RTVSPropertyOp15
 70
     1
102
RTVSPropertyOp16
 70
     1
102
RTVSPropertyOp17
 70
     1
102
RTVSPropertyOp18
 70
     1
102
RTVSPropertyOp19
 70
     1
102
RTVSPropertyOp20
 70
     1
102
RTVSPropertyOp21
 70
     1
102
RTVSPropertyOp22
 70
     1
102
RTVSPropertyOp23
 70
     1
102
RTVSPropertyOp24
 70
     1
102
RTVSPropertyOp25
 70
     1
102
RTVSPropertyOp26
 70
     1
102
RTVSPropertyOp27
 70
     1
102
RTVSPropertyOp28
 70
     1
102
RTVSPropertyOp29
 70
     1
102
RTVSPropertyOp30
 70
     1
102
RTVSPropertyOp31
 70
     1
102
RTVSPropertyOp32
 70
     1
102
RTVSPropertyOp33
 70
     1
102
RTVSPropertyOp34
 70
     1
102
RTVSPropertyOp35
 70
     1
102
RTVSPropertyOp36
 70
     1
102
RTVSPropertyOp37
 70
     1
102
RTVSPropertyOp38
 70
     1
102
RTVSPropertyOp39
 70
     1
102
RTVSPropertyOp40
 70
     1
102
RTVSPropertyOp41
 70
     1
102
RTVSPropertyOp42
 70
     1
102
RTVSPropertyOp43
 70
     1
102
RTVSPropertyOp44
 70
     1
102
RTVSPropertyOp45
 70
     1
102
RTVSPropertyOp46
 70
     1
102
RTVSPropertyOp47
 70
     1
102
RTVSPropertyOp48
 70
     1
102
RTVSPropertyOp49
 70
     1
102
RTVSPropertyOp50
 70
     1
102
RTVSPropertyOp51
 70
     0
102
RTVSPropertyOp52
 70
     0
102
RTVSPropertyOp53
 70
     1
102
RTVSPropertyOp54
 70
     1
102
RTVSPropertyOp55
 70
     1
102
RTVSPropertyOp56
 70
     1
102
RTVSPropertyOp57
 70
     1
102
RTVSPost2010Prop28
280
     0
102
RTVSPost2010PropOp28
 70
     1
102
RTVSPost2010Prop29
280
     1
102
RTVSPost2010PropOp29
 70
     1
102
RTVSPost2010Prop30
280
     1
102
RTVSPost2010PropOp30
 70
     1
102
RTVSPost2010Prop31
280
     0
102
RTVSPost2010PropOp31
 70
     1
102
RTVSPost2010Prop32
280
     0
102
RTVSPost2010PropOp32
 70
     1
102
RTVSPost2010Prop33
280
     0
102
RTVSPost2010PropOp33
 70
     1
102
RTVSPost2010Prop34
280
     0
102
RTVSPost2010PropOp34
 70
     1
102
RTVSPost2010Prop35
280
     0
102
RTVSPost2010PropOp35
 70
     1
102
RTVSPost2010Prop36
280
     0
102
RTVSPost2010PropOp36
 70
     1
102
RTVSPost2010Prop37
 90
       50
102
RTVSPost2010PropOp37
 70
     1
102
RTVSPost2010Prop38
140
0.0
102
RTVSPost2010PropOp38
 70
     1
102
RTVSPost2010Prop39
140
1.0
102
RTVSPost2010PropOp39
 70
     1
102
RTVSPost2010Prop40
 90
        0
102
RTVSPost2010PropOp40
 70
     1
102
RTVSPost2010Prop41ColorIndex
 90
       18
102
RTVSPost2010Prop41ColorRGB
 90
        0
102
RTVSPost2010PropOp41
 70
     1
102
RTVSPost2010Prop42
 90
       50
102
RTVSPost2010PropOp42
 70
     1
102
RTVSPost2010Prop43
 90
        3
102
RTVSPost2010PropOp43
 70
     1
102
RTVSPost2010Prop44ColorIndex
 90
        5
102
RTVSPost2010Prop44ColorRGB
 90
      255
102
RTVSPost2010PropOp44
 70
     1
102
RTVSPost2010Prop45
280
     0
102
RTVSPost2010PropOp45
 70
     1
102
RTVSPost2010Prop46
 90
       50
102
RTVSPost2010PropOp46
 70
     1
102
RTVSPost2010Prop47
 90
       50
102
RTVSPost2010PropOp47
 70
     1
102
RTVSPost2010Prop48
 90
       50
102
RTVSPost2010PropOp48
 70
     1
102
RTVSPost2010Prop49
280
     0
102
RTVSPost2010PropOp49
 70
     1
102
RTVSPost2010Prop50
 90
       50
102
RTVSPost2010PropOp50
 70
     1
102
RTVSPost2010Prop51ColorIndex
 90
      256
102
RTVSPost2010Prop51ColorRGB
 90
-16777216
102
RTVSPost2010PropOp51
 70
     0
102
RTVSPost2010Prop52
140
1.0
102
RTVSPost2010PropOp52
 70
     0
102
RTVSPost2010Prop53
 90
        2
102
RTVSPost2010PropOp53
 70
     1
102
RTVSPost2010Prop54
  1
strokes_ogs.tif
102
RTVSPost2010PropOp54
 70
     1
102
RTVSPost2010Prop55
280
     0
102
RTVSPost2010PropOp55
 70
     1
102
RTVSPost2010Prop56
140
1.0
102
RTVSPost2010PropOp56
 70
     1
102
RTVSPost2010Prop57
140
1.0
102
RTVSPost2010PropOp57
 70
     1
  0
XRECORD
  5
234
102
{ACAD_REACTORS
330
233
102
}
330
233
100
AcDbXrecord
280
     1
102
RTVSPropertyOp0
 70
     0
102
RTVSPropertyOp1
 70
     0
102
RTVSPropertyOp2
 70
     0
102
RTVSPropertyOp3
 70
     0
102
RTVSPropertyOp4
 70
     0
102
RTVSPropertyOp5
 70
     0
102
RTVSPropertyOp6
 70
     0
102
RTVSPropertyOp7
 70
     0
102
RTVSPropertyOp8
 70
     0
102
RTVSPropertyOp9
 70
     0
102
RTVSPropertyOp10
 70
     0
102
RTVSPropertyOp11
 70
     0
102
RTVSPropertyOp12
 70
     0
102
RTVSPropertyOp13
 70
     0
102
RTVSPropertyOp14
 70
     2
102
RTVSPropertyOp15
 70
     0
102
RTVSPropertyOp16
 70
     0
102
RTVSPropertyOp17
 70
     0
102
RTVSPropertyOp18
 70
     0
102
RTVSPropertyOp19
 70
     0
102
RTVSPropertyOp20
 70
     0
102
RTVSPropertyOp21
 70
     0
102
RTVSPropertyOp22
 70
     0
102
RTVSPropertyOp23
 70
     0
102
RTVSPropertyOp24
 70
     0
102
RTVSPropertyOp25
 70
     0
102
RTVSPropertyOp26
 70
     0
102
RTVSPropertyOp27
 70
     0
102
RTVSPropertyOp28
 70
     0
102
RTVSPropertyOp29
 70
     0
102
RTVSPropertyOp30
 70
     0
102
RTVSPropertyOp31
 70
     0
102
RTVSPropertyOp32
 70
     0
102
RTVSPropertyOp33
 70
     0
102
RTVSPropertyOp34
 70
     0
102
RTVSPropertyOp35
 70
     0
102
RTVSPropertyOp36
 70
     0
102
RTVSPropertyOp37
 70
     0
102
RTVSPropertyOp38
 70
     0
102
RTVSPropertyOp39
 70
     0
102
RTVSPropertyOp40
 70
     0
102
RTVSPropertyOp41
 70
     0
102
RTVSPropertyOp42
 70
     0
102
RTVSPropertyOp43
 70
     0
102
RTVSPropertyOp44
 70
     0
102
RTVSPropertyOp45
 70
     0
102
RTVSPropertyOp46
 70
     0
102
RTVSPropertyOp47
 70
     0
102
RTVSPropertyOp48
 70
     0
102
RTVSPropertyOp49
 70
     0
102
RTVSPropertyOp50
 70
     0
102
RTVSPropertyOp51
 70
     0
102
RTVSPropertyOp52
 70
     0
102
RTVSPropertyOp53
 70
     0
102
RTVSPropertyOp54
 70
     0
102
RTVSPropertyOp55
 70
     0
102
RTVSPropertyOp56
 70
     0
102
RTVSPropertyOp57
 70
     0
102
RTVSPost2010Prop28
280
     0
102
RTVSPost2010PropOp28
 70
     0
102
RTVSPost2010Prop29
280
     1
102
RTVSPost2010PropOp29
 70
     0
102
RTVSPost2010Prop30
280
     1
102
RTVSPost2010PropOp30
 70
     0
102
RTVSPost2010Prop31
280
     0
102
RTVSPost2010PropOp31
 70
     0
102
RTVSPost2010Prop32
280
     0
102
RTVSPost2010PropOp32
 70
     0
102
RTVSPost2010Prop33
280
     0
102
RTVSPost2010PropOp33
 70
     0
102
RTVSPost2010Prop34
280
     0
102
RTVSPost2010PropOp34
 70
     0
102
RTVSPost2010Prop35
280
     0
102
RTVSPost2010PropOp35
 70
     0
102
RTVSPost2010Prop36
280
     0
102
RTVSPost2010PropOp36
 70
     0
102
RTVSPost2010Prop37
 90
       50
102
RTVSPost2010PropOp37
 70
     0
102
RTVSPost2010Prop38
140
0.0
102
RTVSPost2010PropOp38
 70
     0
102
RTVSPost2010Prop39
140
1.0
102
RTVSPost2010PropOp39
 70
     0
102
RTVSPost2010Prop40
 90
        0
102
RTVSPost2010PropOp40
 70
     0
102
RTVSPost2010Prop41ColorIndex
 90
       18
102
RTVSPost2010Prop41ColorRGB
 90
        0
102
RTVSPost2010PropOp41
 70
     0
102
RTVSPost2010Prop42
 90
       50
102
RTVSPost2010PropOp42
 70
     0
102
RTVSPost2010Prop43
 90
        3
102
RTVSPost2010PropOp43
 70
     0
102
RTVSPost2010Prop44ColorIndex
 90
        5
102
RTVSPost2010Prop44ColorRGB
 90
      255
102
RTVSPost2010PropOp44
 70
     0
102
RTVSPost2010Prop45
280
     0
102
RTVSPost2010PropOp45
 70
     0
102
RTVSPost2010Prop46
 90
       50
102
RTVSPost2010PropOp46
 70
     0
102
RTVSPost2010Prop47
 90
       50
102
RTVSPost2010PropOp47
 70
     0
102
RTVSPost2010Prop48
 90
       50
102
RTVSPost2010PropOp48
 70
     0
102
RTVSPost2010Prop49
280
     0
102
RTVSPost2010PropOp49
 70
     0
102
RTVSPost2010Prop50
 90
       50
102
RTVSPost2010PropOp50
 70
     0
102
RTVSPost2010Prop51ColorIndex
 90
      256
102
RTVSPost2010Prop51ColorRGB
 90
-16777216
102
RTVSPost2010PropOp51
 70
     0
102
RTVSPost2010Prop52
140
1.0
102
RTVSPost2010PropOp52
 70
     0
102
RTVSPost2010Prop53
 90
        2
102
RTVSPost2010PropOp53
 70
     0
102
RTVSPost2010Prop54
  1
strokes_ogs.tif
102
RTVSPost2010PropOp54
 70
     0
102
RTVSPost2010Prop55
280
     0
102
RTVSPost2010PropOp55
 70
     0
102
RTVSPost2010Prop56
140
1.0
102
RTVSPost2010PropOp56
 70
     0
102
RTVSPost2010Prop57
140
1.0
102
RTVSPost2010PropOp57
 70
     0
  0
XRECORD
  5
222
102
{ACAD_REACTORS
330
221
102
}
330
221
100
AcDbXrecord
280
     1
102
RTVSPropertyOp0
 70
     1
102
RTVSPropertyOp1
 70
     1
102
RTVSPropertyOp2
 70
     1
102
RTVSPropertyOp3
 70
     1
102
RTVSPropertyOp4
 70
     1
102
RTVSPropertyOp5
 70
     1
102
RTVSPropertyOp6
 70
     1
102
RTVSPropertyOp7
 70
     1
102
RTVSPropertyOp8
 70
     1
102
RTVSPropertyOp9
 70
     1
102
RTVSPropertyOp10
 70
     1
102
RTVSPropertyOp11
 70
     1
102
RTVSPropertyOp12
 70
     1
102
RTVSPropertyOp13
 70
     1
102
RTVSPropertyOp14
 70
     1
102
RTVSPropertyOp15
 70
     1
102
RTVSPropertyOp16
 70
     1
102
RTVSPropertyOp17
 70
     1
102
RTVSPropertyOp18
 70
     1
102
RTVSPropertyOp19
 70
     1
102
RTVSPropertyOp20
 70
     1
102
RTVSPropertyOp21
 70
     1
102
RTVSPropertyOp22
 70
     1
102
RTVSPropertyOp23
 70
     1
102
RTVSPropertyOp24
 70
     1
102
RTVSPropertyOp25
 70
     1
102
RTVSPropertyOp26
 70
     1
102
RTVSPropertyOp27
 70
     1
102
RTVSPropertyOp28
 70
     1
102
RTVSPropertyOp29
 70
     1
102
RTVSPropertyOp30
 70
     1
102
RTVSPropertyOp31
 70
     1
102
RTVSPropertyOp32
 70
     1
102
RTVSPropertyOp33
 70
     1
102
RTVSPropertyOp34
 70
     1
102
RTVSPropertyOp35
 70
     1
102
RTVSPropertyOp36
 70
     1
102
RTVSPropertyOp37
 70
     1
102
RTVSPropertyOp38
 70
     1
102
RTVSPropertyOp39
 70
     1
102
RTVSPropertyOp40
 70
     1
102
RTVSPropertyOp41
 70
     1
102
RTVSPropertyOp42
 70
     1
102
RTVSPropertyOp43
 70
     1
102
RTVSPropertyOp44
 70
     1
102
RTVSPropertyOp45
 70
     1
102
RTVSPropertyOp46
 70
     1
102
RTVSPropertyOp47
 70
     1
102
RTVSPropertyOp48
 70
     1
102
RTVSPropertyOp49
 70
     1
102
RTVSPropertyOp50
 70
     1
102
RTVSPropertyOp51
 70
     0
102
RTVSPropertyOp52
 70
     0
102
RTVSPropertyOp53
 70
     1
102
RTVSPropertyOp54
 70
     1
102
RTVSPropertyOp55
 70
     1
102
RTVSPropertyOp56
 70
     1
102
RTVSPropertyOp57
 70
     1
102
RTVSPost2010Prop28
280
     0
102
RTVSPost2010PropOp28
 70
     1
102
RTVSPost2010Prop29
280
     1
102
RTVSPost2010PropOp29
 70
     1
102
RTVSPost2010Prop30
280
     1
102
RTVSPost2010PropOp30
 70
     1
102
RTVSPost2010Prop31
280
     0
102
RTVSPost2010PropOp31
 70
     1
102
RTVSPost2010Prop32
280
     0
102
RTVSPost2010PropOp32
 70
     1
102
RTVSPost2010Prop33
280
     0
102
RTVSPost2010PropOp33
 70
     1
102
RTVSPost2010Prop34
280
     0
102
RTVSPost2010PropOp34
 70
     1
102
RTVSPost2010Prop35
280
     0
102
RTVSPost2010PropOp35
 70
     1
102
RTVSPost2010Prop36
280
     0
102
RTVSPost2010PropOp36
 70
     1
102
RTVSPost2010Prop37
 90
       50
102
RTVSPost2010PropOp37
 70
     1
102
RTVSPost2010Prop38
140
0.0
102
RTVSPost2010PropOp38
 70
     1
102
RTVSPost2010Prop39
140
1.0
102
RTVSPost2010PropOp39
 70
     1
102
RTVSPost2010Prop40
 90
        0
102
RTVSPost2010PropOp40
 70
     1
102
RTVSPost2010Prop41ColorIndex
 90
       18
102
RTVSPost2010Prop41ColorRGB
 90
        0
102
RTVSPost2010PropOp41
 70
     1
102
RTVSPost2010Prop42
 90
       50
102
RTVSPost2010PropOp42
 70
     1
102
RTVSPost2010Prop43
 90
        3
102
RTVSPost2010PropOp43
 70
     1
102
RTVSPost2010Prop44ColorIndex
 90
        5
102
RTVSPost2010Prop44ColorRGB
 90
      255
102
RTVSPost2010PropOp44
 70
     1
102
RTVSPost2010Prop45
280
     0
102
RTVSPost2010PropOp45
 70
     1
102
RTVSPost2010Prop46
 90
       50
102
RTVSPost2010PropOp46
 70
     1
102
RTVSPost2010Prop47
 90
       50
102
RTVSPost2010PropOp47
 70
     1
102
RTVSPost2010Prop48
 90
       50
102
RTVSPost2010PropOp48
 70
     1
102
RTVSPost2010Prop49
280
     0
102
RTVSPost2010PropOp49
 70
     1
102
RTVSPost2010Prop50
 90
       50
102
RTVSPost2010PropOp50
 70
     1
102
RTVSPost2010Prop51ColorIndex
 90
      256
102
RTVSPost2010Prop51ColorRGB
 90
-16777216
102
RTVSPost2010PropOp51
 70
     0
102
RTVSPost2010Prop52
140
1.0
102
RTVSPost2010PropOp52
 70
     0
102
RTVSPost2010Prop53
 90
        2
102
RTVSPost2010PropOp53
 70
     1
102
RTVSPost2010Prop54
  1
strokes_ogs.tif
102
RTVSPost2010PropOp54
 70
     1
102
RTVSPost2010Prop55
280
     0
102
RTVSPost2010PropOp55
 70
     1
102
RTVSPost2010Prop56
140
1.0
102
RTVSPost2010PropOp56
 70
     1
102
RTVSPost2010Prop57
140
1.0
102
RTVSPost2010PropOp57
 70
     1
  0
XRECORD
  5
240
102
{ACAD_REACTORS
330
23F
102
}
330
23F
100
AcDbXrecord
280
     1
102
RTVSPropertyOp0
 70
     1
102
RTVSPropertyOp1
 70
     1
102
RTVSPropertyOp2
 70
     1
102
RTVSPropertyOp3
 70
     1
102
RTVSPropertyOp4
 70
     1
102
RTVSPropertyOp5
 70
     1
102
RTVSPropertyOp6
 70
     1
102
RTVSPropertyOp7
 70
     1
102
RTVSPropertyOp8
 70
     1
102
RTVSPropertyOp9
 70
     1
102
RTVSPropertyOp10
 70
     1
102
RTVSPropertyOp11
 70
     1
102
RTVSPropertyOp12
 70
     1
102
RTVSPropertyOp13
 70
     1
102
RTVSPropertyOp14
 70
     1
102
RTVSPropertyOp15
 70
     1
102
RTVSPropertyOp16
 70
     1
102
RTVSPropertyOp17
 70
     1
102
RTVSPropertyOp18
 70
     1
102
RTVSPropertyOp19
 70
     1
102
RTVSPropertyOp20
 70
     1
102
RTVSPropertyOp21
 70
     1
102
RTVSPropertyOp22
 70
     1
102
RTVSPropertyOp23
 70
     1
102
RTVSPropertyOp24
 70
     1
102
RTVSPropertyOp25
 70
     1
102
RTVSPropertyOp26
 70
     1
102
RTVSPropertyOp27
 70
     1
102
RTVSPropertyOp28
 70
     1
102
RTVSPropertyOp29
 70
     1
102
RTVSPropertyOp30
 70
     1
102
RTVSPropertyOp31
 70
     1
102
RTVSPropertyOp32
 70
     1
102
RTVSPropertyOp33
 70
     1
102
RTVSPropertyOp34
 70
     1
102
RTVSPropertyOp35
 70
     1
102
RTVSPropertyOp36
 70
     1
102
RTVSPropertyOp37
 70
     1
102
RTVSPropertyOp38
 70
     1
102
RTVSPropertyOp39
 70
     1
102
RTVSPropertyOp40
 70
     1
102
RTVSPropertyOp41
 70
     1
102
RTVSPropertyOp42
 70
     1
102
RTVSPropertyOp43
 70
     1
102
RTVSPropertyOp44
 70
     1
102
RTVSPropertyOp45
 70
     1
102
RTVSPropertyOp46
 70
     1
102
RTVSPropertyOp47
 70
     1
102
RTVSPropertyOp48
 70
     1
102
RTVSPropertyOp49
 70
     1
102
RTVSPropertyOp50
 70
     1
102
RTVSPropertyOp51
 70
     0
102
RTVSPropertyOp52
 70
     0
102
RTVSPropertyOp53
 70
     1
102
RTVSPropertyOp54
 70
     1
102
RTVSPropertyOp55
 70
     1
102
RTVSPropertyOp56
 70
     1
102
RTVSPropertyOp57
 70
     1
102
RTVSPost2010Prop28
280
     0
102
RTVSPost2010PropOp28
 70
     1
102
RTVSPost2010Prop29
280
     1
102
RTVSPost2010PropOp29
 70
     1
102
RTVSPost2010Prop30
280
     1
102
RTVSPost2010PropOp30
 70
     1
102
RTVSPost2010Prop31
280
     0
102
RTVSPost2010PropOp31
 70
     1
102
RTVSPost2010Prop32
280
     0
102
RTVSPost2010PropOp32
 70
     1
102
RTVSPost2010Prop33
280
     0
102
RTVSPost2010PropOp33
 70
     1
102
RTVSPost2010Prop34
280
     0
102
RTVSPost2010PropOp34
 70
     1
102
RTVSPost2010Prop35
280
     0
102
RTVSPost2010PropOp35
 70
     1
102
RTVSPost2010Prop36
280
     0
102
RTVSPost2010PropOp36
 70
     1
102
RTVSPost2010Prop37
 90
       50
102
RTVSPost2010PropOp37
 70
     1
102
RTVSPost2010Prop38
140
0.0
102
RTVSPost2010PropOp38
 70
     1
102
RTVSPost2010Prop39
140
1.0
102
RTVSPost2010PropOp39
 70
     1
102
RTVSPost2010Prop40
 90
        0
102
RTVSPost2010PropOp40
 70
     1
102
RTVSPost2010Prop41ColorIndex
 90
       18
102
RTVSPost2010Prop41ColorRGB
 90
        0
102
RTVSPost2010PropOp41
 70
     1
102
RTVSPost2010Prop42
 90
       50
102
RTVSPost2010PropOp42
 70
     1
102
RTVSPost2010Prop43
 90
        3
102
RTVSPost2010PropOp43
 70
     1
102
RTVSPost2010Prop44ColorIndex
 90
        5
102
RTVSPost2010Prop44ColorRGB
 90
      255
102
RTVSPost2010PropOp44
 70
     1
102
RTVSPost2010Prop45
280
     0
102
RTVSPost2010PropOp45
 70
     1
102
RTVSPost2010Prop46
 90
       50
102
RTVSPost2010PropOp46
 70
     1
102
RTVSPost2010Prop47
 90
       50
102
RTVSPost2010PropOp47
 70
     1
102
RTVSPost2010Prop48
 90
       50
102
RTVSPost2010PropOp48
 70
     1
102
RTVSPost2010Prop49
280
     0
102
RTVSPost2010PropOp49
 70
     1
102
RTVSPost2010Prop50
 90
       50
102
RTVSPost2010PropOp50
 70
     1
102
RTVSPost2010Prop51ColorIndex
 90
      256
102
RTVSPost2010Prop51ColorRGB
 90
-16777216
102
RTVSPost2010PropOp51
 70
     0
102
RTVSPost2010Prop52
140
1.0
102
RTVSPost2010PropOp52
 70
     0
102
RTVSPost2010Prop53
 90
        2
102
RTVSPost2010PropOp53
 70
     1
102
RTVSPost2010Prop54
  1
strokes_ogs.tif
102
RTVSPost2010PropOp54
 70
     1
102
RTVSPost2010Prop55
280
     0
102
RTVSPost2010PropOp55
 70
     1
102
RTVSPost2010Prop56
140
1.0
102
RTVSPost2010PropOp56
 70
     1
102
RTVSPost2010Prop57
140
1.0
102
RTVSPost2010PropOp57
 70
     1
  0
XRECORD
  5
23E
102
{ACAD_REACTORS
330
23D
102
}
330
23D
100
AcDbXrecord
280
     1
102
RTVSPropertyOp0
 70
     1
102
RTVSPropertyOp1
 70
     1
102
RTVSPropertyOp2
 70
     1
102
RTVSPropertyOp3
 70
     1
102
RTVSPropertyOp4
 70
     1
102
RTVSPropertyOp5
 70
     1
102
RTVSPropertyOp6
 70
     1
102
RTVSPropertyOp7
 70
     1
102
RTVSPropertyOp8
 70
     1
102
RTVSPropertyOp9
 70
     1
102
RTVSPropertyOp10
 70
     1
102
RTVSPropertyOp11
 70
     1
102
RTVSPropertyOp12
 70
     1
102
RTVSPropertyOp13
 70
     1
102
RTVSPropertyOp14
 70
     1
102
RTVSPropertyOp15
 70
     1
102
RTVSPropertyOp16
 70
     1
102
RTVSPropertyOp17
 70
     1
102
RTVSPropertyOp18
 70
     1
102
RTVSPropertyOp19
 70
     1
102
RTVSPropertyOp20
 70
     1
102
RTVSPropertyOp21
 70
     1
102
RTVSPropertyOp22
 70
     1
102
RTVSPropertyOp23
 70
     1
102
RTVSPropertyOp24
 70
     1
102
RTVSPropertyOp25
 70
     1
102
RTVSPropertyOp26
 70
     1
102
RTVSPropertyOp27
 70
     1
102
RTVSPropertyOp28
 70
     1
102
RTVSPropertyOp29
 70
     1
102
RTVSPropertyOp30
 70
     1
102
RTVSPropertyOp31
 70
     1
102
RTVSPropertyOp32
 70
     1
102
RTVSPropertyOp33
 70
     1
102
RTVSPropertyOp34
 70
     1
102
RTVSPropertyOp35
 70
     1
102
RTVSPropertyOp36
 70
     1
102
RTVSPropertyOp37
 70
     1
102
RTVSPropertyOp38
 70
     1
102
RTVSPropertyOp39
 70
     1
102
RTVSPropertyOp40
 70
     1
102
RTVSPropertyOp41
 70
     1
102
RTVSPropertyOp42
 70
     1
102
RTVSPropertyOp43
 70
     1
102
RTVSPropertyOp44
 70
     1
102
RTVSPropertyOp45
 70
     1
102
RTVSPropertyOp46
 70
     1
102
RTVSPropertyOp47
 70
     1
102
RTVSPropertyOp48
 70
     1
102
RTVSPropertyOp49
 70
     1
102
RTVSPropertyOp50
 70
     1
102
RTVSPropertyOp51
 70
     0
102
RTVSPropertyOp52
 70
     0
102
RTVSPropertyOp53
 70
     1
102
RTVSPropertyOp54
 70
     1
102
RTVSPropertyOp55
 70
     1
102
RTVSPropertyOp56
 70
     1
102
RTVSPropertyOp57
 70
     1
102
RTVSPost2010Prop28
280
     0
102
RTVSPost2010PropOp28
 70
     1
102
RTVSPost2010Prop29
280
     1
102
RTVSPost2010PropOp29
 70
     1
102
RTVSPost2010Prop30
280
     1
102
RTVSPost2010PropOp30
 70
     1
102
RTVSPost2010Prop31
280
     0
102
RTVSPost2010PropOp31
 70
     1
102
RTVSPost2010Prop32
280
     0
102
RTVSPost2010PropOp32
 70
     1
102
RTVSPost2010Prop33
280
     0
102
RTVSPost2010PropOp33
 70
     1
102
RTVSPost2010Prop34
280
     0
102
RTVSPost2010PropOp34
 70
     1
102
RTVSPost2010Prop35
280
     0
102
RTVSPost2010PropOp35
 70
     1
102
RTVSPost2010Prop36
280
     0
102
RTVSPost2010PropOp36
 70
     1
102
RTVSPost2010Prop37
 90
       50
102
RTVSPost2010PropOp37
 70
     1
102
RTVSPost2010Prop38
140
0.0
102
RTVSPost2010PropOp38
 70
     1
102
RTVSPost2010Prop39
140
1.0
102
RTVSPost2010PropOp39
 70
     1
102
RTVSPost2010Prop40
 90
        0
102
RTVSPost2010PropOp40
 70
     1
102
RTVSPost2010Prop41ColorIndex
 90
       18
102
RTVSPost2010Prop41ColorRGB
 90
        0
102
RTVSPost2010PropOp41
 70
     1
102
RTVSPost2010Prop42
 90
       50
102
RTVSPost2010PropOp42
 70
     1
102
RTVSPost2010Prop43
 90
        3
102
RTVSPost2010PropOp43
 70
     1
102
RTVSPost2010Prop44ColorIndex
 90
        5
102
RTVSPost2010Prop44ColorRGB
 90
      255
102
RTVSPost2010PropOp44
 70
     1
102
RTVSPost2010Prop45
280
     0
102
RTVSPost2010PropOp45
 70
     1
102
RTVSPost2010Prop46
 90
       50
102
RTVSPost2010PropOp46
 70
     1
102
RTVSPost2010Prop47
 90
       50
102
RTVSPost2010PropOp47
 70
     1
102
RTVSPost2010Prop48
 90
       50
102
RTVSPost2010PropOp48
 70
     1
102
RTVSPost2010Prop49
280
     0
102
RTVSPost2010PropOp49
 70
     1
102
RTVSPost2010Prop50
 90
       50
102
RTVSPost2010PropOp50
 70
     1
102
RTVSPost2010Prop51ColorIndex
 90
      256
102
RTVSPost2010Prop51ColorRGB
 90
-16777216
102
RTVSPost2010PropOp51
 70
     0
102
RTVSPost2010Prop52
140
1.0
102
RTVSPost2010PropOp52
 70
     0
102
RTVSPost2010Prop53
 90
        2
102
RTVSPost2010PropOp53
 70
     1
102
RTVSPost2010Prop54
  1
strokes_ogs.tif
102
RTVSPost2010PropOp54
 70
     1
102
RTVSPost2010Prop55
280
     0
102
RTVSPost2010PropOp55
 70
     1
102
RTVSPost2010Prop56
140
1.0
102
RTVSPost2010PropOp56
 70
     1
102
RTVSPost2010Prop57
140
1.0
102
RTVSPost2010PropOp57
 70
     1
  0
XRECORD
  5
238
102
{ACAD_REACTORS
330
237
102
}
330
237
100
AcDbXrecord
280
     1
102
RTVSPropertyOp0
 70
     1
102
RTVSPropertyOp1
 70
     1
102
RTVSPropertyOp2
 70
     1
102
RTVSPropertyOp3
 70
     1
102
RTVSPropertyOp4
 70
     1
102
RTVSPropertyOp5
 70
     1
102
RTVSPropertyOp6
 70
     1
102
RTVSPropertyOp7
 70
     1
102
RTVSPropertyOp8
 70
     1
102
RTVSPropertyOp9
 70
     1
102
RTVSPropertyOp10
 70
     1
102
RTVSPropertyOp11
 70
     1
102
RTVSPropertyOp12
 70
     1
102
RTVSPropertyOp13
 70
     1
102
RTVSPropertyOp14
 70
     1
102
RTVSPropertyOp15
 70
     1
102
RTVSPropertyOp16
 70
     1
102
RTVSPropertyOp17
 70
     1
102
RTVSPropertyOp18
 70
     1
102
RTVSPropertyOp19
 70
     1
102
RTVSPropertyOp20
 70
     1
102
RTVSPropertyOp21
 70
     1
102
RTVSPropertyOp22
 70
     1
102
RTVSPropertyOp23
 70
     1
102
RTVSPropertyOp24
 70
     1
102
RTVSPropertyOp25
 70
     1
102
RTVSPropertyOp26
 70
     1
102
RTVSPropertyOp27
 70
     1
102
RTVSPropertyOp28
 70
     1
102
RTVSPropertyOp29
 70
     1
102
RTVSPropertyOp30
 70
     1
102
RTVSPropertyOp31
 70
     1
102
RTVSPropertyOp32
 70
     1
102
RTVSPropertyOp33
 70
     1
102
RTVSPropertyOp34
 70
     1
102
RTVSPropertyOp35
 70
     1
102
RTVSPropertyOp36
 70
     1
102
RTVSPropertyOp37
 70
     1
102
RTVSPropertyOp38
 70
     1
102
RTVSPropertyOp39
 70
     1
102
RTVSPropertyOp40
 70
     1
102
RTVSPropertyOp41
 70
     1
102
RTVSPropertyOp42
 70
     1
102
RTVSPropertyOp43
 70
     1
102
RTVSPropertyOp44
 70
     1
102
RTVSPropertyOp45
 70
     1
102
RTVSPropertyOp46
 70
     1
102
RTVSPropertyOp47
 70
     1
102
RTVSPropertyOp48
 70
     1
102
RTVSPropertyOp49
 70
     1
102
RTVSPropertyOp50
 70
     1
102
RTVSPropertyOp51
 70
     0
102
RTVSPropertyOp52
 70
     0
102
RTVSPropertyOp53
 70
     1
102
RTVSPropertyOp54
 70
     1
102
RTVSPropertyOp55
 70
     1
102
RTVSPropertyOp56
 70
     1
102
RTVSPropertyOp57
 70
     1
102
RTVSPost2010Prop28
280
     0
102
RTVSPost2010PropOp28
 70
     1
102
RTVSPost2010Prop29
280
     1
102
RTVSPost2010PropOp29
 70
     1
102
RTVSPost2010Prop30
280
     1
102
RTVSPost2010PropOp30
 70
     1
102
RTVSPost2010Prop31
280
     0
102
RTVSPost2010PropOp31
 70
     1
102
RTVSPost2010Prop32
280
     0
102
RTVSPost2010PropOp32
 70
     1
102
RTVSPost2010Prop33
280
     0
102
RTVSPost2010PropOp33
 70
     1
102
RTVSPost2010Prop34
280
     0
102
RTVSPost2010PropOp34
 70
     1
102
RTVSPost2010Prop35
280
     0
102
RTVSPost2010PropOp35
 70
     1
102
RTVSPost2010Prop36
280
     0
102
RTVSPost2010PropOp36
 70
     1
102
RTVSPost2010Prop37
 90
       50
102
RTVSPost2010PropOp37
 70
     1
102
RTVSPost2010Prop38
140
0.0
102
RTVSPost2010PropOp38
 70
     1
102
RTVSPost2010Prop39
140
1.0
102
RTVSPost2010PropOp39
 70
     1
102
RTVSPost2010Prop40
 90
        0
102
RTVSPost2010PropOp40
 70
     1
102
RTVSPost2010Prop41ColorIndex
 90
       18
102
RTVSPost2010Prop41ColorRGB
 90
        0
102
RTVSPost2010PropOp41
 70
     1
102
RTVSPost2010Prop42
 90
       50
102
RTVSPost2010PropOp42
 70
     1
102
RTVSPost2010Prop43
 90
        3
102
RTVSPost2010PropOp43
 70
     1
102
RTVSPost2010Prop44ColorIndex
 90
        5
102
RTVSPost2010Prop44ColorRGB
 90
      255
102
RTVSPost2010PropOp44
 70
     1
102
RTVSPost2010Prop45
280
     0
102
RTVSPost2010PropOp45
 70
     1
102
RTVSPost2010Prop46
 90
       50
102
RTVSPost2010PropOp46
 70
     1
102
RTVSPost2010Prop47
 90
       50
102
RTVSPost2010PropOp47
 70
     1
102
RTVSPost2010Prop48
 90
       50
102
RTVSPost2010PropOp48
 70
     1
102
RTVSPost2010Prop49
280
     0
102
RTVSPost2010PropOp49
 70
     1
102
RTVSPost2010Prop50
 90
       50
102
RTVSPost2010PropOp50
 70
     1
102
RTVSPost2010Prop51ColorIndex
 90
      256
102
RTVSPost2010Prop51ColorRGB
 90
-16777216
102
RTVSPost2010PropOp51
 70
     0
102
RTVSPost2010Prop52
140
1.0
102
RTVSPost2010PropOp52
 70
     0
102
RTVSPost2010Prop53
 90
        2
102
RTVSPost2010PropOp53
 70
     1
102
RTVSPost2010Prop54
  1
strokes_ogs.tif
102
RTVSPost2010PropOp54
 70
     1
102
RTVSPost2010Prop55
280
     0
102
RTVSPost2010PropOp55
 70
     1
102
RTVSPost2010Prop56
140
1.0
102
RTVSPost2010PropOp56
 70
     1
102
RTVSPost2010Prop57
140
1.0
102
RTVSPost2010PropOp57
 70
     1
  0
XRECORD
  5
23A
102
{ACAD_REACTORS
330
239
102
}
330
239
100
AcDbXrecord
280
     1
102
RTVSPropertyOp0
 70
     1
102
RTVSPropertyOp1
 70
     1
102
RTVSPropertyOp2
 70
     1
102
RTVSPropertyOp3
 70
     1
102
RTVSPropertyOp4
 70
     1
102
RTVSPropertyOp5
 70
     1
102
RTVSPropertyOp6
 70
     1
102
RTVSPropertyOp7
 70
     1
102
RTVSPropertyOp8
 70
     1
102
RTVSPropertyOp9
 70
     1
102
RTVSPropertyOp10
 70
     1
102
RTVSPropertyOp11
 70
     1
102
RTVSPropertyOp12
 70
     1
102
RTVSPropertyOp13
 70
     1
102
RTVSPropertyOp14
 70
     1
102
RTVSPropertyOp15
 70
     1
102
RTVSPropertyOp16
 70
     1
102
RTVSPropertyOp17
 70
     1
102
RTVSPropertyOp18
 70
     1
102
RTVSPropertyOp19
 70
     1
102
RTVSPropertyOp20
 70
     1
102
RTVSPropertyOp21
 70
     1
102
RTVSPropertyOp22
 70
     1
102
RTVSPropertyOp23
 70
     1
102
RTVSPropertyOp24
 70
     1
102
RTVSPropertyOp25
 70
     1
102
RTVSPropertyOp26
 70
     1
102
RTVSPropertyOp27
 70
     1
102
RTVSPropertyOp28
 70
     1
102
RTVSPropertyOp29
 70
     1
102
RTVSPropertyOp30
 70
     1
102
RTVSPropertyOp31
 70
     1
102
RTVSPropertyOp32
 70
     1
102
RTVSPropertyOp33
 70
     1
102
RTVSPropertyOp34
 70
     1
102
RTVSPropertyOp35
 70
     1
102
RTVSPropertyOp36
 70
     1
102
RTVSPropertyOp37
 70
     1
102
RTVSPropertyOp38
 70
     1
102
RTVSPropertyOp39
 70
     1
102
RTVSPropertyOp40
 70
     1
102
RTVSPropertyOp41
 70
     1
102
RTVSPropertyOp42
 70
     1
102
RTVSPropertyOp43
 70
     1
102
RTVSPropertyOp44
 70
     1
102
RTVSPropertyOp45
 70
     1
102
RTVSPropertyOp46
 70
     1
102
RTVSPropertyOp47
 70
     1
102
RTVSPropertyOp48
 70
     1
102
RTVSPropertyOp49
 70
     1
102
RTVSPropertyOp50
 70
     1
102
RTVSPropertyOp51
 70
     0
102
RTVSPropertyOp52
 70
     0
102
RTVSPropertyOp53
 70
     1
102
RTVSPropertyOp54
 70
     1
102
RTVSPropertyOp55
 70
     1
102
RTVSPropertyOp56
 70
     1
102
RTVSPropertyOp57
 70
     1
102
RTVSPost2010Prop28
280
     0
102
RTVSPost2010PropOp28
 70
     1
102
RTVSPost2010Prop29
280
     1
102
RTVSPost2010PropOp29
 70
     1
102
RTVSPost2010Prop30
280
     1
102
RTVSPost2010PropOp30
 70
     1
102
RTVSPost2010Prop31
280
     0
102
RTVSPost2010PropOp31
 70
     1
102
RTVSPost2010Prop32
280
     0
102
RTVSPost2010PropOp32
 70
     1
102
RTVSPost2010Prop33
280
     0
102
RTVSPost2010PropOp33
 70
     1
102
RTVSPost2010Prop34
280
     0
102
RTVSPost2010PropOp34
 70
     1
102
RTVSPost2010Prop35
280
     0
102
RTVSPost2010PropOp35
 70
     1
102
RTVSPost2010Prop36
280
     0
102
RTVSPost2010PropOp36
 70
     1
102
RTVSPost2010Prop37
 90
       50
102
RTVSPost2010PropOp37
 70
     1
102
RTVSPost2010Prop38
140
0.0
102
RTVSPost2010PropOp38
 70
     1
102
RTVSPost2010Prop39
140
1.0
102
RTVSPost2010PropOp39
 70
     1
102
RTVSPost2010Prop40
 90
        0
102
RTVSPost2010PropOp40
 70
     1
102
RTVSPost2010Prop41ColorIndex
 90
       18
102
RTVSPost2010Prop41ColorRGB
 90
        0
102
RTVSPost2010PropOp41
 70
     1
102
RTVSPost2010Prop42
 90
       50
102
RTVSPost2010PropOp42
 70
     1
102
RTVSPost2010Prop43
 90
        3
102
RTVSPost2010PropOp43
 70
     1
102
RTVSPost2010Prop44ColorIndex
 90
        5
102
RTVSPost2010Prop44ColorRGB
 90
      255
102
RTVSPost2010PropOp44
 70
     1
102
RTVSPost2010Prop45
280
     0
102
RTVSPost2010PropOp45
 70
     1
102
RTVSPost2010Prop46
 90
       50
102
RTVSPost2010PropOp46
 70
     1
102
RTVSPost2010Prop47
 90
       50
102
RTVSPost2010PropOp47
 70
     1
102
RTVSPost2010Prop48
 90
       50
102
RTVSPost2010PropOp48
 70
     1
102
RTVSPost2010Prop49
280
     0
102
RTVSPost2010PropOp49
 70
     1
102
RTVSPost2010Prop50
 90
       50
102
RTVSPost2010PropOp50
 70
     1
102
RTVSPost2010Prop51ColorIndex
 90
      256
102
RTVSPost2010Prop51ColorRGB
 90
-16777216
102
RTVSPost2010PropOp51
 70
     0
102
RTVSPost2010Prop52
140
1.0
102
RTVSPost2010PropOp52
 70
     0
102
RTVSPost2010Prop53
 90
        2
102
RTVSPost2010PropOp53
 70
     1
102
RTVSPost2010Prop54
  1
strokes_ogs.tif
102
RTVSPost2010PropOp54
 70
     1
102
RTVSPost2010Prop55
280
     0
102
RTVSPost2010PropOp55
 70
     1
102
RTVSPost2010Prop56
140
1.0
102
RTVSPost2010PropOp56
 70
     1
102
RTVSPost2010Prop57
140
1.0
102
RTVSPost2010PropOp57
 70
     1
  0
XRECORD
  5
22A
102
{ACAD_REACTORS
330
229
102
}
330
229
100
AcDbXrecord
280
     1
102
RTVSPropertyOp0
 70
     1
102
RTVSPropertyOp1
 70
     1
102
RTVSPropertyOp2
 70
     1
102
RTVSPropertyOp3
 70
     1
102
RTVSPropertyOp4
 70
     1
102
RTVSPropertyOp5
 70
     1
102
RTVSPropertyOp6
 70
     1
102
RTVSPropertyOp7
 70
     1
102
RTVSPropertyOp8
 70
     1
102
RTVSPropertyOp9
 70
     1
102
RTVSPropertyOp10
 70
     1
102
RTVSPropertyOp11
 70
     1
102
RTVSPropertyOp12
 70
     1
102
RTVSPropertyOp13
 70
     1
102
RTVSPropertyOp14
 70
     1
102
RTVSPropertyOp15
 70
     1
102
RTVSPropertyOp16
 70
     1
102
RTVSPropertyOp17
 70
     1
102
RTVSPropertyOp18
 70
     1
102
RTVSPropertyOp19
 70
     1
102
RTVSPropertyOp20
 70
     1
102
RTVSPropertyOp21
 70
     1
102
RTVSPropertyOp22
 70
     1
102
RTVSPropertyOp23
 70
     1
102
RTVSPropertyOp24
 70
     1
102
RTVSPropertyOp25
 70
     1
102
RTVSPropertyOp26
 70
     1
102
RTVSPropertyOp27
 70
     1
102
RTVSPropertyOp28
 70
     1
102
RTVSPropertyOp29
 70
     1
102
RTVSPropertyOp30
 70
     1
102
RTVSPropertyOp31
 70
     1
102
RTVSPropertyOp32
 70
     1
102
RTVSPropertyOp33
 70
     1
102
RTVSPropertyOp34
 70
     1
102
RTVSPropertyOp35
 70
     1
102
RTVSPropertyOp36
 70
     1
102
RTVSPropertyOp37
 70
     1
102
RTVSPropertyOp38
 70
     1
102
RTVSPropertyOp39
 70
     1
102
RTVSPropertyOp40
 70
     1
102
RTVSPropertyOp41
 70
     1
102
RTVSPropertyOp42
 70
     1
102
RTVSPropertyOp43
 70
     1
102
RTVSPropertyOp44
 70
     1
102
RTVSPropertyOp45
 70
     1
102
RTVSPropertyOp46
 70
     1
102
RTVSPropertyOp47
 70
     1
102
RTVSPropertyOp48
 70
     1
102
RTVSPropertyOp49
 70
     1
102
RTVSPropertyOp50
 70
     1
102
RTVSPropertyOp51
 70
     0
102
RTVSPropertyOp52
 70
     0
102
RTVSPropertyOp53
 70
     1
102
RTVSPropertyOp54
 70
     1
102
RTVSPropertyOp55
 70
     1
102
RTVSPropertyOp56
 70
     1
102
RTVSPropertyOp57
 70
     1
102
RTVSPost2010Prop28
280
     0
102
RTVSPost2010PropOp28
 70
     1
102
RTVSPost2010Prop29
280
     1
102
RTVSPost2010PropOp29
 70
     1
102
RTVSPost2010Prop30
280
     1
102
RTVSPost2010PropOp30
 70
     1
102
RTVSPost2010Prop31
280
     0
102
RTVSPost2010PropOp31
 70
     1
102
RTVSPost2010Prop32
280
     0
102
RTVSPost2010PropOp32
 70
     1
102
RTVSPost2010Prop33
280
     0
102
RTVSPost2010PropOp33
 70
     1
102
RTVSPost2010Prop34
280
     0
102
RTVSPost2010PropOp34
 70
     1
102
RTVSPost2010Prop35
280
     0
102
RTVSPost2010PropOp35
 70
     1
102
RTVSPost2010Prop36
280
     0
102
RTVSPost2010PropOp36
 70
     1
102
RTVSPost2010Prop37
 90
       50
102
RTVSPost2010PropOp37
 70
     1
102
RTVSPost2010Prop38
140
0.0
102
RTVSPost2010PropOp38
 70
     1
102
RTVSPost2010Prop39
140
1.0
102
RTVSPost2010PropOp39
 70
     1
102
RTVSPost2010Prop40
 90
        0
102
RTVSPost2010PropOp40
 70
     1
102
RTVSPost2010Prop41ColorIndex
 90
       18
102
RTVSPost2010Prop41ColorRGB
 90
        0
102
RTVSPost2010PropOp41
 70
     1
102
RTVSPost2010Prop42
 90
       50
102
RTVSPost2010PropOp42
 70
     1
102
RTVSPost2010Prop43
 90
        3
102
RTVSPost2010PropOp43
 70
     1
102
RTVSPost2010Prop44ColorIndex
 90
        5
102
RTVSPost2010Prop44ColorRGB
 90
      255
102
RTVSPost2010PropOp44
 70
     1
102
RTVSPost2010Prop45
280
     0
102
RTVSPost2010PropOp45
 70
     1
102
RTVSPost2010Prop46
 90
       50
102
RTVSPost2010PropOp46
 70
     1
102
RTVSPost2010Prop47
 90
       50
102
RTVSPost2010PropOp47
 70
     1
102
RTVSPost2010Prop48
 90
       50
102
RTVSPost2010PropOp48
 70
     1
102
RTVSPost2010Prop49
280
     0
102
RTVSPost2010PropOp49
 70
     1
102
RTVSPost2010Prop50
 90
       50
102
RTVSPost2010PropOp50
 70
     1
102
RTVSPost2010Prop51ColorIndex
 90
      256
102
RTVSPost2010Prop51ColorRGB
 90
-16777216
102
RTVSPost2010PropOp51
 70
     0
102
RTVSPost2010Prop52
140
1.0
102
RTVSPost2010PropOp52
 70
     0
102
RTVSPost2010Prop53
 90
        2
102
RTVSPost2010PropOp53
 70
     1
102
RTVSPost2010Prop54
  1
strokes_ogs.tif
102
RTVSPost2010PropOp54
 70
     1
102
RTVSPost2010Prop55
280
     0
102
RTVSPost2010PropOp55
 70
     1
102
RTVSPost2010Prop56
140
1.0
102
RTVSPost2010PropOp56
 70
     1
102
RTVSPost2010Prop57
140
1.0
102
RTVSPost2010PropOp57
 70
     1
  0
XRECORD
  5
21C
102
{ACAD_REACTORS
330
21B
102
}
330
21B
100
AcDbXrecord
280
     1
102
RTVSPropertyOp0
 70
     1
102
RTVSPropertyOp1
 70
     1
102
RTVSPropertyOp2
 70
     1
102
RTVSPropertyOp3
 70
     1
102
RTVSPropertyOp4
 70
     1
102
RTVSPropertyOp5
 70
     1
102
RTVSPropertyOp6
 70
     1
102
RTVSPropertyOp7
 70
     1
102
RTVSPropertyOp8
 70
     1
102
RTVSPropertyOp9
 70
     1
102
RTVSPropertyOp10
 70
     1
102
RTVSPropertyOp11
 70
     1
102
RTVSPropertyOp12
 70
     1
102
RTVSPropertyOp13
 70
     1
102
RTVSPropertyOp14
 70
     1
102
RTVSPropertyOp15
 70
     1
102
RTVSPropertyOp16
 70
     1
102
RTVSPropertyOp17
 70
     1
102
RTVSPropertyOp18
 70
     1
102
RTVSPropertyOp19
 70
     1
102
RTVSPropertyOp20
 70
     1
102
RTVSPropertyOp21
 70
     1
102
RTVSPropertyOp22
 70
     1
102
RTVSPropertyOp23
 70
     1
102
RTVSPropertyOp24
 70
     1
102
RTVSPropertyOp25
 70
     1
102
RTVSPropertyOp26
 70
     1
102
RTVSPropertyOp27
 70
     1
102
RTVSPropertyOp28
 70
     1
102
RTVSPropertyOp29
 70
     1
102
RTVSPropertyOp30
 70
     1
102
RTVSPropertyOp31
 70
     1
102
RTVSPropertyOp32
 70
     1
102
RTVSPropertyOp33
 70
     1
102
RTVSPropertyOp34
 70
     1
102
RTVSPropertyOp35
 70
     1
102
RTVSPropertyOp36
 70
     1
102
RTVSPropertyOp37
 70
     1
102
RTVSPropertyOp38
 70
     1
102
RTVSPropertyOp39
 70
     1
102
RTVSPropertyOp40
 70
     1
102
RTVSPropertyOp41
 70
     1
102
RTVSPropertyOp42
 70
     1
102
RTVSPropertyOp43
 70
     1
102
RTVSPropertyOp44
 70
     1
102
RTVSPropertyOp45
 70
     1
102
RTVSPropertyOp46
 70
     1
102
RTVSPropertyOp47
 70
     1
102
RTVSPropertyOp48
 70
     1
102
RTVSPropertyOp49
 70
     1
102
RTVSPropertyOp50
 70
     1
102
RTVSPropertyOp51
 70
     0
102
RTVSPropertyOp52
 70
     0
102
RTVSPropertyOp53
 70
     1
102
RTVSPropertyOp54
 70
     1
102
RTVSPropertyOp55
 70
     1
102
RTVSPropertyOp56
 70
     1
102
RTVSPropertyOp57
 70
     1
102
RTVSPost2010Prop28
280
     0
102
RTVSPost2010PropOp28
 70
     1
102
RTVSPost2010Prop29
280
     1
102
RTVSPost2010PropOp29
 70
     1
102
RTVSPost2010Prop30
280
     1
102
RTVSPost2010PropOp30
 70
     1
102
RTVSPost2010Prop31
280
     0
102
RTVSPost2010PropOp31
 70
     1
102
RTVSPost2010Prop32
280
     0
102
RTVSPost2010PropOp32
 70
     1
102
RTVSPost2010Prop33
280
     0
102
RTVSPost2010PropOp33
 70
     1
102
RTVSPost2010Prop34
280
     0
102
RTVSPost2010PropOp34
 70
     1
102
RTVSPost2010Prop35
280
     0
102
RTVSPost2010PropOp35
 70
     1
102
RTVSPost2010Prop36
280
     0
102
RTVSPost2010PropOp36
 70
     1
102
RTVSPost2010Prop37
 90
       50
102
RTVSPost2010PropOp37
 70
     1
102
RTVSPost2010Prop38
140
0.0
102
RTVSPost2010PropOp38
 70
     1
102
RTVSPost2010Prop39
140
1.0
102
RTVSPost2010PropOp39
 70
     1
102
RTVSPost2010Prop40
 90
        0
102
RTVSPost2010PropOp40
 70
     1
102
RTVSPost2010Prop41ColorIndex
 90
       18
102
RTVSPost2010Prop41ColorRGB
 90
        0
102
RTVSPost2010PropOp41
 70
     1
102
RTVSPost2010Prop42
 90
       50
102
RTVSPost2010PropOp42
 70
     1
102
RTVSPost2010Prop43
 90
        3
102
RTVSPost2010PropOp43
 70
     1
102
RTVSPost2010Prop44ColorIndex
 90
        5
102
RTVSPost2010Prop44ColorRGB
 90
      255
102
RTVSPost2010PropOp44
 70
     1
102
RTVSPost2010Prop45
280
     0
102
RTVSPost2010PropOp45
 70
     1
102
RTVSPost2010Prop46
 90
       50
102
RTVSPost2010PropOp46
 70
     1
102
RTVSPost2010Prop47
 90
       50
102
RTVSPost2010PropOp47
 70
     1
102
RTVSPost2010Prop48
 90
       50
102
RTVSPost2010PropOp48
 70
     1
102
RTVSPost2010Prop49
280
     0
102
RTVSPost2010PropOp49
 70
     1
102
RTVSPost2010Prop50
 90
       50
102
RTVSPost2010PropOp50
 70
     1
102
RTVSPost2010Prop51ColorIndex
 90
      256
102
RTVSPost2010Prop51ColorRGB
 90
-16777216
102
RTVSPost2010PropOp51
 70
     0
102
RTVSPost2010Prop52
140
1.0
102
RTVSPost2010PropOp52
 70
     0
102
RTVSPost2010Prop53
 90
        2
102
RTVSPost2010PropOp53
 70
     1
102
RTVSPost2010Prop54
  1
strokes_ogs.tif
102
RTVSPost2010PropOp54
 70
     1
102
RTVSPost2010Prop55
280
     0
102
RTVSPost2010PropOp55
 70
     1
102
RTVSPost2010Prop56
140
1.0
102
RTVSPost2010PropOp56
 70
     1
102
RTVSPost2010Prop57
140
1.0
102
RTVSPost2010PropOp57
 70
     1
  0
XRECORD
  5
23C
102
{ACAD_REACTORS
330
23B
102
}
330
23B
100
AcDbXrecord
280
     1
102
RTVSPropertyOp0
 70
     1
102
RTVSPropertyOp1
 70
     1
102
RTVSPropertyOp2
 70
     1
102
RTVSPropertyOp3
 70
     1
102
RTVSPropertyOp4
 70
     1
102
RTVSPropertyOp5
 70
     1
102
RTVSPropertyOp6
 70
     1
102
RTVSPropertyOp7
 70
     1
102
RTVSPropertyOp8
 70
     1
102
RTVSPropertyOp9
 70
     1
102
RTVSPropertyOp10
 70
     1
102
RTVSPropertyOp11
 70
     1
102
RTVSPropertyOp12
 70
     1
102
RTVSPropertyOp13
 70
     1
102
RTVSPropertyOp14
 70
     1
102
RTVSPropertyOp15
 70
     1
102
RTVSPropertyOp16
 70
     1
102
RTVSPropertyOp17
 70
     1
102
RTVSPropertyOp18
 70
     1
102
RTVSPropertyOp19
 70
     1
102
RTVSPropertyOp20
 70
     1
102
RTVSPropertyOp21
 70
     1
102
RTVSPropertyOp22
 70
     1
102
RTVSPropertyOp23
 70
     1
102
RTVSPropertyOp24
 70
     1
102
RTVSPropertyOp25
 70
     1
102
RTVSPropertyOp26
 70
     1
102
RTVSPropertyOp27
 70
     1
102
RTVSPropertyOp28
 70
     1
102
RTVSPropertyOp29
 70
     1
102
RTVSPropertyOp30
 70
     1
102
RTVSPropertyOp31
 70
     1
102
RTVSPropertyOp32
 70
     1
102
RTVSPropertyOp33
 70
     1
102
RTVSPropertyOp34
 70
     1
102
RTVSPropertyOp35
 70
     1
102
RTVSPropertyOp36
 70
     1
102
RTVSPropertyOp37
 70
     1
102
RTVSPropertyOp38
 70
     1
102
RTVSPropertyOp39
 70
     1
102
RTVSPropertyOp40
 70
     1
102
RTVSPropertyOp41
 70
     1
102
RTVSPropertyOp42
 70
     1
102
RTVSPropertyOp43
 70
     1
102
RTVSPropertyOp44
 70
     1
102
RTVSPropertyOp45
 70
     1
102
RTVSPropertyOp46
 70
     1
102
RTVSPropertyOp47
 70
     1
102
RTVSPropertyOp48
 70
     1
102
RTVSPropertyOp49
 70
     1
102
RTVSPropertyOp50
 70
     1
102
RTVSPropertyOp51
 70
     0
102
RTVSPropertyOp52
 70
     0
102
RTVSPropertyOp53
 70
     1
102
RTVSPropertyOp54
 70
     1
102
RTVSPropertyOp55
 70
     1
102
RTVSPropertyOp56
 70
     1
102
RTVSPropertyOp57
 70
     1
102
RTVSPost2010Prop28
280
     0
102
RTVSPost2010PropOp28
 70
     1
102
RTVSPost2010Prop29
280
     1
102
RTVSPost2010PropOp29
 70
     1
102
RTVSPost2010Prop30
280
     1
102
RTVSPost2010PropOp30
 70
     1
102
RTVSPost2010Prop31
280
     0
102
RTVSPost2010PropOp31
 70
     1
102
RTVSPost2010Prop32
280
     0
102
RTVSPost2010PropOp32
 70
     1
102
RTVSPost2010Prop33
280
     0
102
RTVSPost2010PropOp33
 70
     1
102
RTVSPost2010Prop34
280
     0
102
RTVSPost2010PropOp34
 70
     1
102
RTVSPost2010Prop35
280
     0
102
RTVSPost2010PropOp35
 70
     1
102
RTVSPost2010Prop36
280
     0
102
RTVSPost2010PropOp36
 70
     1
102
RTVSPost2010Prop37
 90
       50
102
RTVSPost2010PropOp37
 70
     1
102
RTVSPost2010Prop38
140
0.0
102
RTVSPost2010PropOp38
 70
     1
102
RTVSPost2010Prop39
140
1.0
102
RTVSPost2010PropOp39
 70
     1
102
RTVSPost2010Prop40
 90
        0
102
RTVSPost2010PropOp40
 70
     1
102
RTVSPost2010Prop41ColorIndex
 90
       18
102
RTVSPost2010Prop41ColorRGB
 90
        0
102
RTVSPost2010PropOp41
 70
     1
102
RTVSPost2010Prop42
 90
       50
102
RTVSPost2010PropOp42
 70
     1
102
RTVSPost2010Prop43
 90
        3
102
RTVSPost2010PropOp43
 70
     1
102
RTVSPost2010Prop44ColorIndex
 90
        5
102
RTVSPost2010Prop44ColorRGB
 90
      255
102
RTVSPost2010PropOp44
 70
     1
102
RTVSPost2010Prop45
280
     0
102
RTVSPost2010PropOp45
 70
     1
102
RTVSPost2010Prop46
 90
       50
102
RTVSPost2010PropOp46
 70
     1
102
RTVSPost2010Prop47
 90
       50
102
RTVSPost2010PropOp47
 70
     1
102
RTVSPost2010Prop48
 90
       50
102
RTVSPost2010PropOp48
 70
     1
102
RTVSPost2010Prop49
280
     0
102
RTVSPost2010PropOp49
 70
     1
102
RTVSPost2010Prop50
 90
       50
102
RTVSPost2010PropOp50
 70
     1
102
RTVSPost2010Prop51ColorIndex
 90
      256
102
RTVSPost2010Prop51ColorRGB
 90
-16777216
102
RTVSPost2010PropOp51
 70
     0
102
RTVSPost2010Prop52
140
1.0
102
RTVSPost2010PropOp52
 70
     0
102
RTVSPost2010Prop53
 90
        2
102
RTVSPost2010PropOp53
 70
     1
102
RTVSPost2010Prop54
  1
strokes_ogs.tif
102
RTVSPost2010PropOp54
 70
     1
102
RTVSPost2010Prop55
280
     0
102
RTVSPost2010PropOp55
 70
     1
102
RTVSPost2010Prop56
140
1.0
102
RTVSPost2010PropOp56
 70
     1
102
RTVSPost2010Prop57
140
1.0
102
RTVSPost2010PropOp57
 70
     1
  0
ENDSEC
  0
EOF
